<?xml version="1.0" standalone="no"?>
<!DOCTYPE svg PUBLIC "-//W3C//DTD SVG 1.1//EN" "http://www.w3.org/Graphics/SVG/1.1/DTD/svg11.dtd" >
<svg xmlns="http://www.w3.org/2000/svg">
<metadata>Generated by IcoMoon</metadata>
<defs>
<font id="sc-font-icon" horiz-adv-x="1024">
<font-face units-per-em="1024" ascent="960" descent="-64" />
<missing-glyph horiz-adv-x="1024" />
<glyph unicode="&#x20;" horiz-adv-x="512" d="" />
<glyph unicode="&#xe900;" glyph-name="outline-edit" d="M885.376 23.915h-309.461c-17.664 0-32 14.336-32 32s14.336 32 32 32h309.461c17.664 0 32-14.336 32-32s-14.336-32-32-32zM559.373 745.957l-401.708-502.398c-7.296-9.131-9.984-20.907-7.296-32.213l29.056-123.093 129.664 1.621c12.331 0.128 23.723 5.632 31.275 15.019 137.26 171.733 398.935 499.156 406.359 508.756 6.997 11.349 9.728 27.392 6.059 42.837-3.755 15.829-13.611 29.269-27.819 37.845-3.029 2.091-74.923 57.899-77.141 59.648-27.051 21.675-66.517 17.92-88.448-8.021zM154.166 23.91c-14.805 0-27.691 10.155-31.147 24.619l-34.944 148.096c-7.211 30.677-0.043 62.336 19.627 86.912l401.921 502.697c0.171 0.171 0.299 0.384 0.469 0.555 44.075 52.693 123.776 60.459 177.536 17.323 2.133-1.664 73.515-57.131 73.515-57.131 25.941-15.445 46.208-43.051 53.888-75.733 7.637-32.341 2.091-65.707-15.701-93.909-1.323-2.091-2.475-3.883-409.004-512.468-19.584-24.405-48.939-38.613-80.469-38.997l-155.691-1.963zM692.198 461.466c-6.827 0-13.653 2.176-19.499 6.613l-232.619 178.689c-13.994 10.752-16.639 30.805-5.888 44.885 10.795 13.995 30.848 16.597 44.885 5.845l232.661-178.646c13.995-10.752 16.64-30.848 5.845-44.885-6.272-8.192-15.787-12.501-25.387-12.501z" />
<glyph unicode="&#xe901;" glyph-name="arrow-bottom" d="M511.531 787.285c-8.661-2.304-15.744-9.771-18.091-19.072-1.408-5.589-1.92-85.589-1.92-290.688v-282.965l-104.917 104.96c-57.685 57.728-107.008 105.899-109.653 107.008-11.221 4.864-24.405 0.768-34.432-10.667-8.704-9.899-10.965-20.053-6.912-30.933 0.981-2.645 47.317-50.517 102.912-106.368s115.925-116.779 134.059-135.424c19.541-20.096 35.285-34.859 38.699-36.267 13.141-5.461 31.147-0.427 39.509 11.051 2.475 3.413 61.867 63.787 132.011 134.187 135.595 136.149 132.949 133.205 130.688 147.2-2.091 12.885-16.853 27.179-29.867 28.928-13.824 1.877-15.616 0.299-124.416-109.867l-101.973-103.211-0.853 285.568c-0.768 258.603-1.109 286.123-3.627 291.541-6.613 14.336-22.272 20.011-41.216 15.019z" />
<glyph unicode="&#xe902;" glyph-name="arrow-right" d="M573.995 747.605c-7.765-3.413-18.987-15.616-21.248-23.168-2.731-9.173-0.64-17.323 6.827-26.752 3.584-4.523 51.157-52.267 105.771-106.112 54.571-53.845 99.243-98.603 99.243-99.413 0-0.853-124.075-1.493-285.739-1.493-197.76 0-287.232-0.555-290.56-1.835-8.021-3.029-13.824-9.899-16-19.029-4.011-16.725 1.451-32.341 13.355-38.272 6.101-3.029 17.664-3.157 293.035-3.584l286.677-0.469-105.259-105.344c-58.155-58.24-106.069-107.52-107.051-110.208-4.181-11.221-0.085-23.595 11.093-33.408 9.899-8.704 20.053-10.965 30.933-6.912 2.645 0.981 49.365 46.165 103.808 100.352s115.371 114.517 135.424 134.101c21.589 21.035 37.419 37.888 38.827 41.259 1.323 3.115 2.389 8.832 2.389 12.629 0 8.747-6.997 22.869-13.227 26.709-2.603 1.579-62.293 60.331-132.693 130.517-89.131 88.875-129.92 128.427-134.357 130.261-7.723 3.243-14.080 3.285-21.248 0.171z" />
<glyph unicode="&#xe903;" glyph-name="bottom" d="M201.856 627.84c-7.979-3.968-18.731-16.341-20.821-24.021-4.053-15.147-12.117-6.144 160-178.304 140.629-140.629 158.891-158.336 164.565-159.36 16.213-2.901 5.376-12.629 177.365 159.36 172.757 172.715 164.139 163.115 159.915 178.688-2.475 9.131-17.664 24.064-26.112 25.643-15.744 2.944-6.784 10.923-161.835-143.957l-142.933-142.805-142.080 141.952c-79.531 79.531-144.213 142.763-146.901 143.787-6.784 2.517-14.763 2.176-21.163-0.981z" />
<glyph unicode="&#xe904;" glyph-name="left" d="M652.843 778.24c-5.376-1.92-39.168-34.859-164.139-159.915-171.093-171.264-161.451-160.512-158.549-176.725 1.024-5.675 18.731-23.936 159.36-164.565 172.459-172.459 163.072-164.053 178.603-159.957 9.216 2.475 24.107 17.621 25.728 26.155 2.944 15.744 10.923 6.784-143.957 161.835l-142.805 142.933 142.805 142.933c126.677 126.805 142.933 143.659 143.957 149.333 1.792 10.027-0.427 17.28-8.021 25.899-11.008 12.501-21.291 16.299-32.981 12.075z" />
<glyph unicode="&#xe905;" glyph-name="fill-users-1" d="M606.396 628.804c0-112.802-92.309-203.195-207.491-203.195-115.142 0-207.489 90.394-207.489 203.195s92.347 203.196 207.489 203.196c115.182 0 207.491-90.396 207.491-203.196zM85.333 195.524c0 104.422 144.449 130.547 313.571 130.547 170.042 0 313.573-27.025 313.573-131.529 0-104.418-144.452-130.543-313.573-130.543-170.041 0-313.571 27.025-313.571 131.524zM690.065 625.12c0-57.443-17.617-111.042-48.512-155.565-3.213-4.578-0.375-10.752 5.218-11.733 7.765-1.267 15.74-2.044 23.881-2.21 80.994-2.082 153.677 48.981 173.756 125.885 29.769 114.109-57.57 216.565-168.828 216.565-12.066 0-23.629-1.227-34.901-3.475-1.545-0.327-3.217-1.063-4.049-2.371-1.088-1.676-0.294-3.843 0.794-5.274 33.438-45.913 52.642-101.802 52.642-161.821zM824.205 375.369c54.438-10.423 90.214-31.646 105.037-62.596 12.565-25.348 12.565-54.784 0-80.132-22.669-47.915-95.812-63.33-124.241-67.294-5.888-0.819-10.607 4.087-9.98 9.894 14.528 132.791-100.988 195.755-130.88 210.227-1.254 0.695-1.545 1.677-1.421 2.33 0.085 0.41 0.627 1.062 1.587 1.186 64.67 1.225 134.221-7.484 159.898-13.615z" />
<glyph unicode="&#xe906;" glyph-name="fill-users" d="M689.421 608.732c0-100.252-79.923-180.64-179.597-180.64s-179.595 80.388-179.595 180.64c0 100.291 79.922 180.602 179.595 180.602s179.597-80.31 179.597-180.602zM509.824 106.667c-146.396 0-271.399 23.211-271.399 116.045 0 92.877 124.201 116.932 271.399 116.932 146.398 0 271.403-23.211 271.403-116.087 0-92.834-124.203-116.89-271.403-116.89zM766.17 605.473c0-51.107-15.245-98.717-41.988-138.295-2.748-4.075-0.303-9.57 4.548-10.415 6.686-1.152 13.602-1.805 20.629-1.997 70.106-1.843 133.026 43.537 150.409 111.857 25.749 101.483-49.856 192.591-146.129 192.591-10.466 0-20.476-1.114-30.221-3.112-1.335-0.308-2.748-0.922-3.511-2.114-0.917-1.46-0.23-3.42 0.687-4.688 28.919-40.77 45.577-90.493 45.577-143.828zM882.27 383.462c47.108-9.259 78.089-28.164 90.927-55.637 10.85-22.558 10.85-48.725 0-71.245-19.639-42.611-82.94-56.294-107.546-59.827-5.082-0.768-9.169 3.648-8.631 8.759 12.565 118.084-87.411 174.071-113.276 186.944-1.109 0.576-1.335 1.459-1.225 1.997 0.077 0.384 0.538 0.998 1.378 1.114 55.966 1.037 116.139-6.647 138.372-12.105zM274.65 454.771c7.029 0.192 13.906 0.806 20.63 1.997 4.852 0.845 7.297 6.34 4.546 10.415-26.743 39.578-41.986 87.188-41.986 138.294 0 53.335 16.657 103.058 45.577 143.828 0.917 1.268 1.566 3.228 0.687 4.688-0.764 1.153-2.216 1.806-3.514 2.114-9.78 1.998-19.79 3.112-30.257 3.112-96.274 0-171.879-91.107-146.092-192.591 17.383-68.32 80.305-113.7 150.409-111.857zM281.469 394.475c0.114-0.576-0.115-1.421-1.184-2.035-25.902-12.873-125.882-68.86-113.312-186.901 0.535-5.15-3.515-9.532-8.596-8.802-24.603 3.537-87.907 17.216-107.544 59.831-10.888 22.554-10.888 48.683 0 71.241 12.837 27.473 43.782 46.379 90.887 55.68 22.273 5.419 82.406 13.103 138.412 12.066 0.841-0.115 1.261-0.734 1.337-1.079z" />
<glyph unicode="&#xe907;" glyph-name="fill-activity" d="M733.018 771.84c0 56.747 46.080 102.827 102.827 102.827s102.827-46.080 102.827-102.827c0-56.747-46.080-102.827-102.827-102.827s-102.827 46.080-102.827 102.827zM568.747 330.27l123.307 159.104-1.707-0.853c6.827 9.387 8.107 21.333 3.413 32-4.651 10.667-14.933 17.92-25.984 18.773-11.563 1.28-23.040-3.84-29.909-13.227l-103.211-133.547-118.229 93.013c-7.253 5.547-15.787 7.723-24.32 6.827-8.491-1.28-16.171-5.931-21.333-12.757l-126.251-164.309-2.603-3.84c-7.253-13.611-3.84-31.104 8.96-40.533 5.973-3.84 12.373-6.4 19.627-6.4 9.856-0.427 19.2 4.736 25.173 12.8l107.093 137.856 121.6-91.349 3.84-2.517c13.653-7.253 30.72-3.883 40.533 8.96zM659.2 798.707c-1.707-10.667-2.56-21.333-2.56-32 0-96 77.653-173.611 173.227-173.611 10.667 0 20.907 1.237 31.573 2.944v-344.277c0-144.683-85.333-230.443-230.4-230.443h-315.264c-145.109 0-230.443 85.76-230.443 230.443v315.691c0 145.067 85.333 231.253 230.443 231.253h343.424z" />
<glyph unicode="&#xe908;" glyph-name="fill-add-user" d="M405.333 424.375c117.53 0 211.738 95.428 211.738 214.479 0 119.049-94.208 214.479-211.738 214.479-117.528 0-211.739-95.43-211.739-214.479 0-119.051 94.211-214.479 211.739-214.479zM405.333 319.351c-172.62 0-320-27.601-320-137.865 0-110.225 146.483-138.82 320-138.82 172.578 0 320 27.601 320 137.869 0 110.263-146.483 138.816-320 138.816zM848.977 550.918h51.332c21.129 0 38.357-17.47 38.357-38.897 0-21.423-17.229-38.895-38.357-38.895h-51.332v-50.231c0-21.427-17.182-38.895-38.353-38.895-21.129 0-38.357 17.468-38.357 38.895v50.231h-51.243c-21.175 0-38.357 17.472-38.357 38.895 0 21.427 17.182 38.897 38.357 38.897h51.243v50.186c0 21.426 17.229 38.896 38.357 38.896 21.171 0 38.353-17.47 38.353-38.896v-50.186z" />
<glyph unicode="&#xe909;" glyph-name="fill-bag-1" d="M488.96 872.875c-28.459-3.84-65.109-18.261-86.187-33.963-14.507-10.795-34.688-31.445-44.373-45.483-18.005-26.027-31.147-61.525-33.408-90.112-1.621-21.035-0.725-19.797-14.848-19.797-27.733-0.043-62.464-8.875-88.917-22.613-58.069-30.208-98.859-86.315-111.531-153.259-2.731-14.635-3.029-28.843-3.029-155.221s0.299-140.587 3.029-155.221c11.221-59.307 44.075-109.483 92.757-141.653 25.941-17.109 55.083-28.203 84.992-32.384 18.261-2.56 430.848-2.56 449.109 0 29.867 4.139 59.051 15.275 84.821 32.256 48.939 32.341 81.664 82.389 93.013 142.464 2.645 13.781 2.944 30.251 2.944 154.539 0 153.301 0.085 151.808-10.923 185.557-20.736 63.445-70.741 114.432-132.608 135.168-18.133 6.059-42.88 10.368-59.819 10.368-13.696 0-14.251 0.512-14.251 12.757 0 10.368-4.48 32.725-9.685 48.256-20.821 62.293-72.277 109.739-135.637 125.013-16.725 4.011-48.299 5.632-65.451 3.328zM539.435 807.381c50.133-10.624 90.453-55.808 97.067-108.757 0.981-7.765 1.792-14.379 1.792-14.635s-56.832-0.469-126.293-0.469h-126.336l1.067 9.813c6.059 56.832 43.733 100.779 97.621 113.835 12.757 3.115 40.96 3.2 55.083 0.213zM363.179 629.931c6.187-3.243 13.355-11.051 15.573-16.939 1.067-2.773 1.835-18.432 1.835-37.163 0-28.885-0.384-33.109-3.371-38.997-11.477-22.485-43.477-22.315-54.443 0.341-3.285 6.784-3.627 10.368-3.627 38.571 0 24.192 0.597 32.469 2.645 37.419 3.328 7.936 8.661 13.824 15.275 16.768 6.784 2.987 20.352 2.987 26.112 0zM688.427 626.603c11.221-8.533 12.075-11.819 12.715-47.744 0.555-31.573 0.469-32.299-3.797-40.96-7.595-15.403-22.4-21.589-37.632-15.787-17.835 6.827-22.187 19.328-21.12 60.629 0.64 24.277 1.024 27.179 4.864 33.92 2.304 4.139 7.211 9.259 11.008 11.605 9.643 5.931 25.003 5.205 33.963-1.664z" />
<glyph unicode="&#xe90a;" glyph-name="fill-bag" d="M483.84 872.832c-21.504-2.944-43.861-9.941-64.853-20.224-69.547-34.133-113.749-99.243-119.68-176.341l-1.109-14.507-11.947-1.109c-17.195-1.579-25.899-3.968-41.344-11.349-38.187-18.219-63.573-53.76-75.989-106.539-1.792-7.552-11.477-78.208-21.547-157.056-18.261-142.805-18.304-143.488-18.347-180.053 0-31.317 0.555-39.211 3.712-53.76 15.872-73.173 59.477-111.829 142.891-126.677 15.787-2.816 33.536-3.029 233.813-3.029 238.507 0 225.237-0.512 261.973 10.496 84.309 25.301 128.171 93.312 124.075 192.597-0.597 14.293-8.192 81.152-18.859 166.4-19.157 152.789-19.883 156.885-33.749 187.563-13.141 29.141-36.864 55.68-60.8 68.096-16.768 8.661-28.331 12.032-45.781 13.397l-13.909 1.067 1.579 6.997c4.053 18.005-7.68 63.531-24.277 94.507-29.013 54.059-83.755 94.251-145.877 107.093-16.469 3.413-53.504 4.693-69.973 2.432zM539.861 815.915c62.763-12.032 113.323-67.883 118.101-130.475 0.555-7.168 1.365-15.531 1.835-18.56l0.853-5.547h-299.349l1.109 16.725c4.011 61.696 40.619 110.933 98.389 132.395 20.949 7.808 54.699 10.112 79.061 5.461zM407.467 513.493c10.923-6.315 17.451-18.731 17.451-33.067 0-9.173-0.853-12.629-5.077-19.968-17.152-29.909-61.653-22.101-68.011 11.904-6.272 33.579 26.709 57.941 55.637 41.131zM644.267 517.803c9.387-2.389 20.821-12.032 24.96-21.077 4.053-9.003 4.053-23.595 0-32.597-4.309-9.515-15.659-18.816-25.899-21.248-16.384-3.968-33.237 3.925-41.088 19.2-11.093 21.675-1.195 46.933 21.632 55.040 8.32 2.987 10.923 3.072 20.395 0.683z" />
<glyph unicode="&#xe90b;" glyph-name="fill-bookmark" d="M379.733 874.667h263.253c115.627 0 209.067-45.653 210.347-161.707v-647.68c0-7.253-1.707-14.507-5.12-20.907-5.547-10.24-14.933-17.92-26.453-21.333-11.093-3.413-23.467-1.707-33.707 4.267l-276.48 138.24-276.907-138.24c-6.357-3.371-13.653-5.547-20.907-5.547-23.893 0-43.093 19.627-43.093 43.52v647.68c0 116.053 93.867 161.707 209.067 161.707zM350.72 549.547h321.28c18.347 0 33.28 14.976 33.28 33.707 0 18.773-14.933 33.707-33.28 33.707h-321.28c-18.347 0-33.28-14.933-33.28-33.707 0-18.731 14.933-33.707 33.28-33.707z" />
<glyph unicode="&#xe90c;" glyph-name="fill-buy" d="M602.509 480.721h118.093c17.907 0 31.979 14.805 31.979 32.657 0 18.287-14.071 32.655-31.979 32.655h-118.093c-17.907 0-31.974-14.368-31.974-32.655 0-17.852 14.067-32.657 31.974-32.657zM860.868 707.094c26.005 0 43.059-9.144 60.113-29.173s20.036-48.767 16.201-74.848l-40.503-285.632c-7.671-54.908-53.717-95.356-107.861-95.356h-465.131c-56.703 0-103.599 44.369-108.289 101.841l-39.223 474.65-64.376 11.321c-17.053 3.048-28.991 20.029-26.007 37.446 2.985 17.808 19.612 29.608 37.091 26.952l101.681-15.631c14.495-2.656 25.154-14.804 26.433-29.609l8.1-97.533c1.279-13.977 12.364-24.427 26.006-24.427h575.766zM316.856 153.263c-35.812 0-64.803-29.606-64.803-66.18 0-36.143 28.991-65.749 64.803-65.749 35.386 0 64.377 29.606 64.377 65.749 0 36.574-28.991 66.18-64.377 66.18zM796.484 153.263c-35.814 0-64.806-29.606-64.806-66.18 0-36.143 28.992-65.749 64.806-65.749 35.383 0 64.375 29.606 64.375 65.749 0 36.574-28.992 66.18-64.375 66.18z" />
<glyph unicode="&#xe90d;" glyph-name="fill-calendar" d="M700.198 841.872l0.043-31.984c117.53-9.212 195.17-89.3 195.294-212.118l0.465-359.499c0.166-133.909-83.959-216.299-218.803-216.512l-329.383-0.427c-134.003-0.171-219.182 84.181-219.35 218.47l-0.463 355.28c-0.169 123.629 74.732 203.503 192.263 214.292l-0.042 31.984c-0.042 18.764 13.859 32.879 32.395 32.879 18.535 0.043 32.437-14.030 32.479-32.794l0.042-29.852 250.229 0.341-0.043 29.852c-0.043 18.764 13.858 32.837 32.397 32.88 18.112 0.042 32.435-14.031 32.478-32.794zM192.917 581.906l637.786 0.853v14.926c-1.809 91.687-47.812 139.791-130.377 146.956l0.038-32.837c0-18.338-14.281-32.88-32.393-32.88-18.534-0.043-32.478 14.457-32.478 32.794l-0.043 34.543-250.23-0.341 0.042-34.5c0-18.38-13.859-32.879-32.395-32.879-18.535-0.043-32.479 14.414-32.479 32.794l-0.042 32.837c-82.146-8.231-127.599-56.505-127.473-149.003l0.042-13.263zM650.236 388.083v-0.469c0.422-19.618 16.431-34.5 35.849-34.074 18.957 0.469 34.082 16.717 33.66 36.335-0.883 18.765-16.094 34.074-35.008 34.031-19.375-0.427-34.543-16.205-34.5-35.823zM685.030 196.608c-19.375 0.427-35.004 16.589-35.046 36.203-0.422 19.618 15.121 35.866 34.5 36.335h0.422c19.797 0 35.849-16.162 35.849-36.207 0.043-20.041-15.966-36.288-35.725-36.331zM476.676 387.401c0.845-19.618 16.892-34.927 36.271-34.074 18.957 0.896 34.082 17.101 33.237 36.719-0.461 19.191-16.051 34.116-35.008 34.074-19.375-0.853-34.543-17.101-34.5-36.719zM513.118 198.524c-19.379-0.853-35.388 14.46-36.271 34.074 0 19.618 15.121 35.823 34.5 36.719 18.957 0.043 34.586-14.882 35.008-34.031 0.883-19.661-14.281-35.866-33.237-36.762zM303.119 385.907c0.842-19.614 16.892-34.97 36.27-34.074 18.957 0.853 34.080 17.101 33.196 36.719-0.421 19.191-16.008 34.116-35.007 34.074-19.378-0.853-34.501-17.101-34.459-36.719zM339.557 198.31c-19.378-0.896-35.386 14.46-36.271 34.074-0.042 19.618 15.124 35.866 34.502 36.719 18.956 0.043 34.585-14.882 35.007-34.074 0.884-19.618-14.239-35.866-33.238-36.719z" />
<glyph unicode="&#xe90e;" glyph-name="fill-call-missed" d="M825.092 707.511l102.549 102.935c7.151 7.177 11.072 16.687 11.072 26.761s-3.921 19.584-11.072 26.761c-14.255 14.266-39.019 14.266-53.278 0l-102.549-102.979-102.592 102.979c-14.259 14.266-39.023 14.266-53.278 0-7.108-7.177-11.029-16.687-11.029-26.761s3.921-19.584 11.029-26.761l102.549-102.935-102.549-102.935c-7.108-7.177-11.029-16.687-11.029-26.761s3.921-19.584 11.029-26.761c14.255-14.266 39.019-14.266 53.278 0l102.592 102.979 102.549-102.979c7.151-7.133 16.585-11.067 26.662-11.067s19.511 3.934 26.615 11.067c7.151 7.177 11.072 16.687 11.072 26.761s-3.921 19.584-11.072 26.761l-102.549 102.935zM470.686 406.511c170.202-170.155 208.815 26.697 317.18-81.596 104.478-104.448 164.523-125.372 32.154-257.702-16.58-13.325-121.924-173.636-492.143 196.48-370.265 370.163-210.049 475.616-196.72 492.192 132.689 132.698 153.254 72.302 257.729-32.144 108.369-108.338-88.398-147.075 81.801-317.23z" />
<glyph unicode="&#xe90f;" glyph-name="fill-call-silent" d="M911.983 794.9v0.434c13.956 14.744 13.956 37.728 0 52.473-6.767 6.939-16.068 11.319-25.796 11.319s-19.029-4.38-25.374-11.319l-766.301-786.23c-1.269-1.301-2.115-2.556-2.96-3.9l-1.269-1.737c-8.035-13.875-6.344-32.525 5.498-45.103 7.613-6.938 16.493-10.837 25.797-10.837s18.185 3.9 25.374 10.837l228.764 234.586c315.753-308.894 421.733-195.618 446.254-169.408 1.626 1.737 2.893 3.089 3.84 3.913 113.792 116.122 82.453 146.569 3.968 222.822v0c-10.961 10.645-22.839 22.187-35.371 34.978-47.189 47.953-80.858 35.831-118.285 22.362-41.195-14.831-86.942-31.3-160.277 28.924l-22.519-22.989 16.9 17.331 401.758 411.544zM263.894 353.907c-255.698 289.714-154.003 390.18-129.122 414.76 1.821 1.799 3.23 3.191 4.058 4.221 114.644 116.274 144.477 84.397 219.174 4.581 10.612-11.34 22.13-23.646 34.926-36.634 47.168-48.103 35.38-82.504 22.265-120.777-10.979-32.044-22.889-66.801-1.91-114.586l-149.391-151.565z" />
<glyph unicode="&#xe910;" glyph-name="fill-call" d="M492.019 427.844c170.202-170.155 208.815 26.697 317.18-81.596 104.478-104.448 164.523-125.372 32.154-257.702-16.58-13.325-121.924-173.636-492.143 196.48-370.265 370.163-210.049 475.616-196.72 492.192 132.689 132.698 153.254 72.302 257.729-32.144 108.369-108.338-88.398-147.075 81.801-317.23z" />
<glyph unicode="&#xe911;" glyph-name="fill-calling" d="M615.181 725.77c-20.314 3.752-38.967-9.21-42.833-29.036s9.135-39.184 28.894-43.064c59.49-11.597 105.421-57.646 117.065-117.338v-0.043c3.315-17.181 18.441-29.674 35.866-29.674 2.334 0 4.672 0.213 7.053 0.64 19.759 3.964 32.759 23.279 28.894 43.147-17.378 89.155-86.003 158.014-174.938 175.368zM612.514 874.328c-9.515 1.364-19.076-1.45-26.684-7.504-7.817-6.14-12.706-15.008-13.764-24.943-2.253-20.082 12.237-38.246 32.29-40.506 138.313-15.435 245.815-123.179 261.367-261.921 2.082-18.588 17.677-32.617 36.288-32.617 1.404 0 2.765 0.085 4.164 0.256 9.732 1.067 18.402 5.884 24.521 13.559 6.076 7.671 8.836 17.224 7.731 26.988-19.375 173.108-153.353 307.458-325.914 326.688zM470.686 406.511c170.202-170.155 208.815 26.697 317.18-81.596 104.478-104.448 164.523-125.372 32.154-257.702-16.58-13.325-121.924-173.636-492.143 196.48-370.265 370.163-210.049 475.616-196.72 492.192 132.689 132.698 153.254 72.302 257.729-32.144 108.369-108.338-88.398-147.075 81.801-317.23z" />
<glyph unicode="&#xe912;" glyph-name="fill-camera" d="M744.107 693.914c1.707-2.984 4.693-5.114 8.533-5.114 102.4 0 186.027-83.534 186.027-185.819v-253.158c0-102.289-83.627-185.822-186.027-185.822h-481.28c-102.827 0-186.027 83.533-186.027 185.822v253.158c0 102.285 83.2 185.819 186.027 185.819 3.413 0 6.827 1.705 8.107 5.114l2.56 5.114c1.471 3.096 2.981 6.277 4.514 9.505 10.915 22.991 22.991 48.425 30.473 63.374 19.627 38.358 52.907 59.667 94.293 60.093h200.96c41.387-0.426 75.093-21.736 94.72-60.093 6.72-13.425 16.956-35.049 26.825-55.891 2.035-4.302 4.058-8.57 6.029-12.726l4.267-9.376zM712.96 530.257c0-21.312 17.067-38.357 38.4-38.357s38.827 17.045 38.827 38.357c0 21.308-17.493 38.782-38.827 38.782s-38.4-17.474-38.4-38.782zM438.187 464.196c-19.627-19.605-30.293-45.602-29.867-72.452v-0.427c0-27.703 10.667-53.7 30.293-73.306s45.653-30.259 73.387-30.259c57.173 0 103.253 46.455 103.68 103.565 0 27.703-10.667 53.7-30.293 73.306s-45.653 30.259-73.387 30.259c-27.733 0-53.76-10.654-73.813-30.686zM630.187 272.836c30.293 30.259 49.067 72.026 49.493 118.481 0 44.322-17.493 86.515-49.067 118.481-31.573 31.538-73.813 49.012-118.613 49.012s-87.040-17.474-119.040-49.438c-31.573-31.966-49.067-73.732-48.64-118.054 0-44.753 17.493-86.519 49.067-118.481 32-31.539 73.813-49.015 118.613-49.015 46.080 0 87.893 18.752 118.187 49.015z" />
<glyph unicode="&#xe913;" glyph-name="fill-category" d="M193.707 874.667h144.213c60.16 0 108.373-49.067 108.373-109.269v-145.451c0-60.587-48.213-109.227-108.373-109.227h-144.213c-59.733 0-108.373 48.64-108.373 109.227v145.451c0 60.203 48.64 109.269 108.373 109.269zM193.707 385.293h144.213c60.16 0 108.373-48.683 108.373-109.269v-145.451c0-60.16-48.213-109.227-108.373-109.227h-144.213c-59.733 0-108.373 49.067-108.373 109.227v145.451c0 60.587 48.64 109.269 108.373 109.269zM830.298 874.667h-144.213c-60.16 0-108.373-49.067-108.373-109.269v-145.451c0-60.587 48.213-109.227 108.373-109.227h144.213c59.733 0 108.373 48.64 108.373 109.227v145.451c0 60.203-48.64 109.269-108.373 109.269zM686.084 385.293h144.213c59.733 0 108.373-48.683 108.373-109.269v-145.451c0-60.16-48.64-109.227-108.373-109.227h-144.213c-60.16 0-108.373 49.067-108.373 109.227v145.451c0 60.587 48.213 109.269 108.373 109.269z" />
<glyph unicode="&#xe914;" glyph-name="fill-chart" d="M278.272 872.832c-55.339-5.333-101.504-25.515-134.101-58.539-28.672-29.056-46.464-65.92-54.827-113.707-2.987-16.853-3.157-32.171-3.157-253.44 0-218.197 0.213-236.715 3.029-251.733 15.616-83.84 59.477-136.917 132.395-160.341 42.027-13.483 23.765-12.587 277.589-13.312 163.285-0.469 232.491-0.085 246.613 1.323 23.125 2.347 51.968 9.259 72.192 17.408 45.312 18.176 83.328 56.192 101.504 101.504 7.765 19.285 14.933 48.555 17.28 70.144 1.28 11.861 1.877 88.448 1.877 236.715 0 187.776-0.384 221.995-2.645 239.275-14.464 110.592-80.811 174.123-192.768 184.747-22.357 2.133-442.88 2.048-464.981-0.043zM524.416 702.208c8.405-2.347 18.048-10.923 21.931-19.541 2.987-6.485 3.115-17.835 3.157-230.571 0.043-162.816-0.469-225.323-1.92-229.547-2.645-7.936-9.173-16.384-15.019-19.413-19.328-9.984-40.149-3.797-49.749 14.805-3.157 6.144-3.243 13.355-3.243 233.941v227.541l4.907 7.765c3.541 5.547 7.552 9.088 13.995 12.288 9.813 4.864 15.872 5.504 25.941 2.731zM333.952 557.909c5.12-3.2 9.387-7.595 11.947-12.459l3.968-7.552v-156.885c0-137.685-0.341-157.611-2.645-162.475-11.733-24.747-45.397-27.221-61.312-4.565l-5.163 7.339-0.469 156.416c-0.555 173.269-1.067 164.693 10.496 175.915 11.861 11.477 28.8 13.141 43.179 4.267zM723.243 406.101c8.405-3.499 15.445-10.325 19.328-18.688 2.944-6.315 3.157-12.501 3.2-83.627v-76.8l-4.096-8.832c-9.728-20.907-38.485-26.539-54.784-10.752-11.264 10.923-10.965 8.363-11.093 95.787-0.085 46.592 0.512 81.024 1.493 83.541 6.571 17.323 28.629 26.624 45.952 19.371z" />
<glyph unicode="&#xe915;" glyph-name="fill-chat" d="M481.28 873.515c-31.701-2.261-75.648-11.051-104.661-20.949-27.605-9.387-35.285-12.629-60.203-25.557-41.429-21.461-71.979-43.947-105.643-77.739-34.987-35.157-58.027-67.499-80.256-112.683-21.12-42.837-33.963-83.627-41.216-130.56-4.267-27.733-4.267-89.088 0.043-115.2 8.661-52.608 22.059-93.397 47.872-145.707 9.515-19.328 11.264-24.192 11.264-31.744 0-6.357-4.736-24.789-16.213-63.317-8.917-29.909-16.213-56.704-16.213-59.563 0-7.424 5.077-16.427 11.776-20.907 9.557-6.4 17.195-5.248 67.669 10.069 40.704 12.373 47.573 13.995 59.819 14.080 15.36 0.128 8.363 2.987 67.243-27.435 37.419-19.328 82.475-33.451 130.56-40.917 28.032-4.352 88.875-4.395 116.907-0.085 116.224 17.749 217.344 76.971 284.971 166.869 52.608 69.845 80.043 149.461 83.115 241.323 1.152 35.115-0.939 62.251-7.339 95.445-33.579 173.141-171.989 309.675-343.68 338.901-35.2 6.016-72.96 8.021-105.813 5.675zM333.525 497.92c10.752-3.84 23.808-15.573 29.653-26.709 3.968-7.552 4.565-10.709 4.565-24.064 0-13.312-0.597-16.512-4.48-23.893-12.331-23.381-37.248-35.285-61.013-29.184-25.387 6.485-41.685 27.221-41.685 53.077 0 23.637 13.867 43.435 35.883 51.285 9.216 3.285 27.093 3.072 37.077-0.512zM534.997 495.829c11.819-5.76 22.101-16.896 26.539-28.672 5.376-14.165 4.267-33.579-2.603-46.165-17.664-32.469-60.928-38.187-86.869-11.477-12.843 13.227-18.133 35.371-12.928 54.144 3.968 14.165 20.565 31.147 34.688 35.456 10.069 3.072 31.787 1.323 41.173-3.285zM733.568 494.933c17.92-9.771 28.16-27.221 28.16-48.043 0-10.453-0.811-14.037-5.461-23.467-20.352-41.301-77.269-41.173-97.707 0.299-3.285 6.613-3.968 10.795-4.011 23.424 0 13.397 0.597 16.469 4.565 24.064 5.547 10.581 18.603 22.656 28.843 26.667 5.504 2.176 11.349 2.859 22.016 2.475 12.245-0.384 15.915-1.237 23.595-5.419z" />
<glyph unicode="&#xe916;" glyph-name="fill-close-square" d="M327.253 874.708h369.92c144.64 0 241.493-101.547 241.493-252.587v-348.628c0-150.613-96.853-252.117-241.493-252.117h-369.92c-144.64 0-241.92 101.504-241.92 252.117v348.628c0 151.040 97.28 252.587 241.92 252.587zM640.427 320.043c14.507 14.464 14.507 37.931 0 52.437l-75.947 75.947 75.947 75.989c14.507 14.463 14.507 38.356 0 52.863-14.507 14.549-37.973 14.549-52.907 0l-75.52-75.903-75.947 75.903c-14.933 14.549-38.4 14.549-52.907 0-14.507-14.507-14.507-38.4 0-52.863l75.947-75.989-75.947-75.52c-14.507-14.933-14.507-38.4 0-52.864 7.253-7.253 17.067-11.136 26.453-11.136 9.813 0 19.2 3.883 26.453 11.136l75.947 75.477 75.947-75.477c7.253-7.723 16.64-11.136 26.027-11.136 9.813 0 19.2 3.883 26.453 11.136z" />
<glyph unicode="&#xe917;" glyph-name="outline-shopping" horiz-adv-x="1067" d="M123.093 829.781c-7.467-2.389-17.408-13.397-20.053-22.187-3.627-12.075 4.523-29.867 16.597-36.309 2.005-1.067 18.773-4.608 37.333-7.808 18.517-3.243 34.261-6.528 34.944-7.339s4.224-37.461 7.851-81.493c22.827-277.077 33.237-393.557 35.925-402.645 8.491-28.757 30.080-54.656 56.192-67.371 27.221-13.227 13.909-12.629 281.216-12.629 267.605 0 255.061-0.555 281.685 12.544 26.837 13.227 48.811 40.064 56.149 68.565 4.608 17.792 43.733 292.693 43.733 307.115 0 39.211-29.44 76.459-66.645 84.352-5.973 1.237-109.397 2.133-315.264 2.731-168.491 0.427-306.731 1.195-307.2 1.664s-3.157 28.203-5.973 61.611c-4.309 50.688-5.76 61.952-8.789 68.181-6.613 13.611-11.093 15.275-64.811 24.704-51.115 8.96-53.803 9.216-62.891 6.315zM879.659 599.723c6.016-3.84 11.008-13.056 11.008-20.437 0-9.216-40.491-287.317-42.923-294.741-1.109-3.328-5.803-9.899-10.453-14.507-15.019-15.061 4.053-14.037-263.936-14.037-262.869 0-248.491-0.64-262.229 11.776-14.336 12.928-13.056 4.949-27.691 177.963-7.211 85.803-13.184 156.459-13.184 157.013 0 0.512 136.192 0.64 302.635 0.256 261.504-0.597 303.232-1.024 306.773-3.285zM609.152 507.648c-13.056-4.651-20.693-15.488-20.693-29.269 0-13.525 6.144-22.997 18.645-28.8 6.485-2.987 12.672-3.285 70.229-3.328 36.523 0 65.792 0.725 69.504 1.749 3.499 0.981 9.216 4.651 12.672 8.107 15.36 15.36 11.307 39.936-8.192 49.664l-8.917 4.437-63.189-0.043c-48.853-0.085-64.768-0.64-70.059-2.517zM304.384 105.173c-37.589-13.397-49.28-59.392-22.656-88.875 15.403-17.067 42.795-22.357 63.445-12.203 11.605 5.675 21.589 15.915 27.008 27.691 5.333 11.648 5.163 31.573-0.341 43.947-11.221 25.088-42.027 38.528-67.456 29.44zM788.437 106.069c-12.032-3.968-17.877-7.808-26.112-16.939-24.107-26.795-15.275-68.864 17.877-85.077 13.568-6.613 32.341-6.827 45.568-0.427 17.237 8.32 27.819 22.528 31.488 42.411 4.053 21.589-8.917 46.080-29.739 56.277-11.563 5.675-28.416 7.296-39.083 3.755z" />
<glyph unicode="&#xe918;" glyph-name="fill-delete" d="M865.583 736.3c16.597 0 30.417-13.781 30.417-31.317v-16.213c0-17.109-13.82-31.317-30.417-31.317h-707.125c-16.64 0-30.458 14.208-30.458 31.317v16.213c0 17.536 13.818 31.317 30.458 31.317h124.404c25.271 0 47.263 17.963 52.948 43.306l6.515 29.099c10.125 39.637 43.446 65.962 81.58 65.962h176.189c37.722 0 71.415-26.325 81.165-63.872l6.972-31.146c5.645-25.386 27.635-43.349 52.949-43.349h124.403zM802.381 143.616c12.988 121.041 35.729 408.614 35.729 411.514 0.828 8.789-2.035 17.109-7.718 23.808-6.101 6.272-13.82 9.984-22.323 9.984h-591.811c-8.548 0-16.681-3.712-22.324-9.984-5.726-6.699-8.548-15.019-8.133-23.808 0.076-0.533 0.892-10.662 2.256-27.596 6.060-75.234 22.938-284.77 33.845-383.919 7.718-73.045 55.645-118.955 125.068-120.619 53.571-1.237 108.759-1.664 165.194-1.664 53.154 0 107.14 0.427 162.372 1.664 71.829 1.237 119.714 46.336 127.846 120.619z" />
<glyph unicode="&#xe919;" glyph-name="fill-discount" d="M490.795 872.96c-19.371-3.499-43.435-14.123-57.301-25.216-4.224-3.413-17.749-16-30.037-28.032-31.744-30.976-31.403-30.848-81.749-32.256-41.6-1.152-53.973-3.029-71.253-10.667-35.84-15.829-62.123-45.781-73.131-83.285-3.072-10.624-3.84-18.816-4.779-53.504-1.451-52.651-0.725-50.859-34.645-85.845-13.44-13.824-27.435-29.696-31.104-35.243-28.288-42.624-28.288-99.029 0-141.867 3.669-5.547 17.621-21.376 31.061-35.157 33.963-34.901 33.237-33.152 34.688-85.888 0.939-34.688 1.707-42.88 4.779-53.504 12.757-43.563 44.757-75.648 88.917-89.088 11.221-3.456 17.792-4.053 53.76-4.949 52.693-1.323 50.944-0.64 85.888-34.603 28.544-27.776 39.424-35.669 60.245-43.477 39.723-14.933 82.176-10.453 116.693 12.331 5.632 3.712 21.504 17.707 35.285 31.147 34.987 34.005 33.024 33.237 86.741 34.731 38.613 1.067 42.88 1.493 55.467 5.589 41.259 13.397 71.893 43.989 85.589 85.504 4.139 12.629 4.565 16.725 5.675 54.613 1.621 55.168 0.256 52.011 38.315 91.392 13.227 13.696 26.581 29.227 29.739 34.517 25.173 42.496 25.173 93.184 0 135.552-3.157 5.333-17.451 21.76-31.787 36.565-35.925 37.077-34.987 34.731-36.309 87.68-0.896 35.968-1.493 42.539-4.949 53.76-11.605 38.059-37.248 67.2-73.045 83.029-17.28 7.637-29.653 9.515-71.253 10.667-50.347 1.408-50.005 1.28-81.749 32.256-12.288 12.032-25.813 24.619-30.037 27.989-9.728 7.808-28.117 17.024-43.52 21.76-13.525 4.224-42.453 6.016-56.192 3.499zM417.28 591.573c7.467-3.371 17.152-13.355 19.883-20.437 2.645-6.997 2.005-23.253-1.237-29.611-11.307-22.357-38.357-28.032-57.131-11.989-13.141 11.264-16.981 27.691-10.027 43.008 4.693 10.325 7.765 13.483 17.792 18.176 10.283 4.864 21.291 5.163 30.72 0.853zM642.005 588.587c8.619-5.717 16.768-20.053 16.768-29.525-0.043-16.683 4.309-11.733-120.021-136.235-126.763-126.933-121.941-122.752-140.117-121.259-22.571 1.877-37.76 24.576-31.744 47.445 1.835 6.997 12.075 17.749 117.504 123.477 76.373 76.587 117.803 116.949 122.325 119.125 9.984 4.821 25.387 3.499 35.285-3.029zM635.435 373.035c6.827-2.603 16.811-12.416 20.139-19.755 10.88-23.893-6.955-51.883-33.109-52.011-21.675-0.085-37.077 15.744-37.077 38.101 0 9.557 0.725 12.032 5.547 19.157 7.339 10.837 17.28 16.085 30.464 16.085 5.419 0 11.733-0.725 14.037-1.579z" />
<glyph unicode="&#xe91a;" glyph-name="fill-discovery" d="M85.333 448c0 235.52 190.72 426.667 426.667 426.667 235.52 0 426.667-191.147 426.667-426.667 0-235.947-191.147-426.667-426.667-426.667-235.947 0-426.667 190.72-426.667 426.667zM607.147 369.92l69.12 218.453c4.693 14.933-8.96 29.013-23.893 24.32l-218.453-68.267c-8.96-2.987-16.213-9.813-18.773-18.773l-68.267-218.88c-4.693-14.507 9.387-28.587 23.893-23.893l217.6 68.267c8.96 2.56 16.213 9.813 18.773 18.773z" />
<glyph unicode="&#xe91b;" glyph-name="fill-document" d="M299.52 872.704c-66.261-7.552-116.864-38.784-145.365-89.728-8.363-14.976-18.219-43.733-22.101-64.469-3.029-16.213-3.2-29.995-3.2-270.507 0-240.597 0.171-254.293 3.2-270.507 5.632-30.080 16.811-58.965 30.635-79.36 7.637-11.264 27.819-31.701 39.552-40.107 21.632-15.445 50.005-26.88 81.707-32.896 14.251-2.688 33.749-2.944 228.053-2.944 200.363 0 213.461 0.171 229.547 3.2 43.051 8.064 75.307 23.893 100.779 49.579 28.117 28.373 44.971 65.749 51.157 113.536 2.261 17.152 2.56 54.101 2.133 268.117l-0.469 248.235-3.925 18.475c-17.579 82.731-66.389 130.731-149.888 147.328-13.909 2.773-31.829 3.029-221.653 3.328-116.011 0.171-212.48-0.384-220.16-1.28zM490.112 670.677c20.821-14.464 19.499-45.824-2.432-57.515-7.125-3.84-8.363-3.883-74.667-4.395-72.021-0.555-78.379 0-88.32 7.552-18.133 13.824-16 44.459 3.84 54.869 9.131 4.821 16.085 5.205 85.632 4.907l68.523-0.256 7.424-5.163zM693.419 479.36c12.16-6.144 18.261-16.085 18.261-29.653 0-15.573-9.643-28.117-24.747-32.256-9.557-2.603-340.309-2.603-349.867 0-15.104 4.139-24.747 16.683-24.747 32.256 0 9.088 4.053 19.2 9.643 24.107 9.813 8.576 0.256 8.192 189.696 8.235 159.232 0.085 176.811-0.171 181.76-2.688zM695.168 281.941c11.904-9.045 16.597-27.008 10.795-40.96-3.029-7.253-13.099-15.915-21.12-18.261-4.523-1.323-58.112-1.707-180.651-1.365l-174.251 0.512-6.784 4.736c-17.493 12.075-20.224 38.144-5.461 51.883 10.368 9.643-1.237 9.131 192.725 8.661l178.475-0.427 6.272-4.779z" />
<glyph unicode="&#xe91c;" glyph-name="fill-download" d="M479.151 648.938v171.052c0 18.188 14.507 33.344 32.853 33.344 16.427 0 30.345-12.736 32.55-28.867l0.303-4.477v-171.052l203.942-0.013c101.547 0 184.973-83.155 189.658-186.862l0.209-9.203v-215.010c0-104.431-80.525-190.157-180.565-194.97l-8.875-0.213h-474.453c-101.547 0-184.572 82.739-189.233 186.825l-0.207 9.242v214.566c0 104.435 80.124 190.575 180.138 195.411l8.875 0.214h204.8v-273.168l-68.267 70.494c-12.8 13.218-33.707 13.218-46.507 0-6.4-6.609-9.387-15.42-9.387-24.23 0-6.699 1.911-13.679 5.953-19.584l3.434-4.211 124.16-128.653c5.973-6.609 14.507-10.133 23.467-10.133 7.113 0 14.221 2.449 19.853 7.087l3.187 3.046 124.16 128.653c12.8 13.218 12.8 34.807 0 48.026-11.635 12.015-29.973 13.107-42.829 3.277l-3.678-3.277-67.84-70.494v273.168l-65.702 0.013z" />
<glyph unicode="&#xe91d;" glyph-name="fill-edit-square" d="M711.053 874.225c61.376 3.836 121.903-17.475 167.509-59.245 41.771-45.606 63.078-106.13 59.669-167.933v-398.096c3.836-61.803-17.899-122.325-59.243-167.932-45.611-41.771-106.56-63.083-167.936-59.247h-398.098c-61.803-3.836-122.328 17.476-167.934 59.247-41.771 45.606-63.082 106.129-59.246 167.932v398.096c-3.836 61.803 17.475 122.327 59.246 167.933 45.606 41.77 106.131 63.081 167.934 59.245h398.098zM468.527 241.28l286.852 287.701c26.001 26.428 26.001 69.050 0 95.050l-55.407 55.409c-26.428 26.426-69.052 26.426-95.475 0l-28.561-28.983c-4.262-4.262-4.262-11.508 0-15.77 0 0 67.772-67.343 69.052-69.048 4.689-5.115 7.671-11.934 7.671-19.607 0-15.344-12.361-28.131-28.13-28.131-7.249 0-14.067 2.982-18.756 7.671l-71.181 70.754c-3.409 3.41-9.374 3.41-12.787 0l-203.309-203.311c-14.066-14.063-22.164-32.819-22.59-52.851l-2.557-101.013c0-5.542 1.705-10.658 5.541-14.494s8.951-5.965 14.492-5.965h100.164c20.461 0 40.066 8.098 54.982 22.588z" />
<glyph unicode="&#xe91e;" glyph-name="fill-edit" d="M400.060 105.476l374.886 484.798c20.373 26.144 27.618 56.369 20.826 87.145-5.884 27.978-23.091 54.58-48.896 74.761l-62.933 49.993c-54.784 43.572-122.701 38.985-161.638-11.008l-42.108-54.626c-5.431-6.834-4.075-16.924 2.718-22.428 0 0 106.398-85.31 108.663-87.145 7.245-6.88 12.676-16.053 14.037-27.060 2.261-21.557-12.681-41.738-34.863-44.49-10.415-1.376-20.378 1.835-27.618 7.797l-111.834 88.979c-5.433 4.082-13.583 3.21-18.111-2.293l-265.77-343.993c-17.205-21.555-23.091-49.532-17.205-76.595l33.957-147.226c1.811-7.799 8.602-13.303 16.752-13.303l149.411 1.835c27.165 0.461 52.52 12.843 69.725 34.859zM609.267 151.326h243.631c23.77 0 43.102-19.584 43.102-43.661 0-24.128-19.332-43.665-43.102-43.665h-243.631c-23.77 0-43.102 19.537-43.102 43.665 0 24.077 19.332 43.661 43.102 43.661z" />
<glyph unicode="&#xe91f;" glyph-name="fill-filter-1" d="M176.136 874.667h671.727c50.167 0 90.803-41.858 90.803-93.536v-65.344c0-25.070-9.796-49.144-27.191-66.702l-277.547-280.743c-4.791-4.89-11.29-7.603-18.014-7.556l-232.387 0.721c-7.072 0-13.794 3.034-18.626 8.329l-255.055 280.517c-15.771 17.332-24.513 40.229-24.513 63.986v66.747c0 51.678 40.635 93.582 90.803 93.582zM395.951 284.838l207.13-0.636c12.915-0.047 23.369-10.859 23.369-24.119v-116.523c0-13.303-7.556-25.344-19.328-30.908l-188.019-88.286c-4.393-2.039-9.049-3.034-13.706-3.034-6.194 0-12.388 1.809-17.792 5.385-9.445 6.246-15.156 17.015-15.156 28.553v205.449c0 13.346 10.543 24.162 23.502 24.119z" />
<glyph unicode="&#xe920;" glyph-name="fill-filter" d="M378.784 687.848c0-79.645-65.659-144.198-146.725-144.198-81.019 0-146.725 64.554-146.725 144.198 0 79.598 65.706 144.152 146.725 144.152 81.066 0 146.725-64.554 146.725-144.152zM874.381 751.005c35.46 0 64.286-28.318 64.286-63.156 0-34.885-28.826-63.203-64.286-63.203h-280.555c-35.507 0-64.329 28.318-64.329 63.203 0 34.839 28.821 63.156 64.329 63.156h280.555zM149.665 279.125h280.556c35.507 0 64.333-28.318 64.333-63.202 0-34.837-28.826-63.202-64.333-63.202h-280.556c-35.508 0-64.332 28.365-64.332 63.202 0 34.884 28.823 63.202 64.332 63.202zM791.94 73.481c81.067 0 146.726 64.555 146.726 144.154 0 79.646-65.66 144.196-146.726 144.196-81.015 0-146.722-64.55-146.722-144.196 0-79.599 65.707-144.154 146.722-144.154z" />
<glyph unicode="&#xe921;" glyph-name="fill-folder" d="M573.867 751.779h130.987c157.44 0 234.24-84.053 233.813-256.428v-207.787c0-164.693-101.547-266.24-266.667-266.24h-320.427c-164.267 0-266.24 101.547-266.24 266.667v320.428c0 176.64 78.507 266.24 233.387 266.24h67.413c39.723 0.427 76.8-17.92 101.12-49.067l37.547-49.92c11.947-14.933 29.867-23.893 49.067-23.893zM314.453 307.618h395.093c17.493 0 31.573 14.507 31.573 32 0 17.92-14.080 32-31.573 32h-395.093c-17.92 0-32-14.080-32-32 0-17.493 14.080-32 32-32z" />
<glyph unicode="&#xe922;" glyph-name="fill-game" d="M343.893 871.424c-13.141-6.059-18.304-15.147-18.091-31.829 0.299-24.192 15.189-50.304 36.992-64.768 17.621-11.691 24.576-13.227 65.579-14.379 35.669-0.981 36.949-1.109 46.336-5.717 17.536-8.619 28.672-25.173 29.269-43.52l0.341-9.771-97.28-1.067c-100.309-1.109-112.853-1.92-140.928-9.216-58.24-15.104-108.416-50.389-140.629-98.944-16.597-25.003-27.904-52.736-35.456-86.784-3.797-17.109-3.84-18.944-3.84-143.616 0-125.653 0-126.379 3.925-144.213 11.307-51.413 31.147-88.789 65.195-122.965 34.517-34.603 76.459-56.491 127.829-66.603 25.728-5.077 77.269-6.528 228.864-6.528s203.136 1.451 228.864 6.528c101.035 19.925 170.795 88.405 193.024 189.568 3.883 17.835 3.925 18.645 3.925 144.213 0 124.672-0.043 126.507-3.84 143.616-2.091 9.515-6.571 25.259-9.941 34.987-28.245 81.621-97.963 139.264-187.776 155.221-17.877 3.157-29.099 3.712-93.909 4.48l-73.643 0.896-1.195 13.824c-4.352 49.835-37.888 89.771-86.443 102.827-7.723 2.091-20.864 3.2-45.312 3.925l-34.475 1.024-5.205 4.992c-5.675 5.419-5.803 5.76-8.661 20.181-4.224 21.333-24.576 32.384-43.52 23.637zM402.859 462.464c2.688-1.365 6.997-5.333 9.643-8.789 4.693-6.101 4.779-6.869 5.632-33.707l0.853-27.435 27.307-0.853c30.976-0.981 35.413-2.389 42.795-13.568 3.328-4.992 4.437-8.917 4.48-15.829 0.128-10.581-3.072-17.749-10.581-24.107-7.68-6.443-15.275-7.936-41.387-7.936h-23.467v-25.685c0-27.776-0.811-31.104-9.643-39.467-15.573-14.72-42.496-8.747-49.963 11.093-1.024 2.645-1.835 15.872-1.835 29.44v24.619h-23.467c-26.112 0-33.707 1.493-41.387 7.936-7.467 6.315-10.496 13.184-10.496 23.936 0 7.253 1.024 10.923 4.395 16.043 7.381 11.136 11.819 12.544 42.795 13.525l27.307 0.853 0.853 26.453c0.939 29.227 2.389 34.176 12.117 41.088 9.771 6.955 23.381 7.893 34.048 2.389zM663.381 455.509c9.472-7.552 12.757-14.891 12.032-26.539-1.195-18.347-15.915-30.080-35.584-28.288-18.475 1.664-29.269 12.672-29.525 30.037-0.256 19.541 13.653 31.616 35.157 30.549 9.685-0.469 12.416-1.365 17.92-5.76zM729.216 317.653c28.331-12.117 22.144-53.803-8.661-58.411-8.917-1.323-20.693 1.195-26.752 5.76-17.877 13.483-15.787 41.131 3.968 51.541 7.509 3.968 23.467 4.523 31.445 1.109z" />
<glyph unicode="&#xe923;" glyph-name="fill-graph" d="M525.926 865.721c6.814 6.116 15.825 9.321 25.050 8.911 195.021-5.838 358.012-147.412 387.55-336.632 0.188-1.13 0.188-2.282 0-3.412 0.636-8.952-2.389-17.784-8.41-24.542-6.016-6.763-14.532-10.889-23.659-11.473l-327.659-21.606c-10.837-0.96-21.585 2.607-29.602 9.822s-12.561 17.412-12.514 28.087l-22.025 321.847v5.307c0.401 9.052 4.454 17.576 11.268 23.692zM503.454 392.806l283.994 18.197 1.933-0.755c12.194-0.201 23.808-5.146 32.29-13.747 8.478-8.606 13.124-20.16 12.915-32.124-11.187-163.076-130.748-299.332-293.453-334.434-162.706-35.106-329.499 39.373-409.388 182.797-23.491 41.31-38.335 86.805-43.662 133.82-2.066 13.931-2.97 28.002-2.705 42.078 0.538 173.408 123.999 323.082 296.747 359.757 20.912 3.914 41.879-6.527 51.005-25.399 2.27-3.424 4.087-7.119 5.406-10.993 3.238-49.988 6.601-99.503 9.946-148.809 2.641-38.94 5.274-77.745 7.829-116.555-0.132-9.143 1.306-18.24 4.25-26.914 6.933-17.067 24.192-27.895 42.893-26.918z" />
<glyph unicode="&#xe924;" glyph-name="fill-heart" d="M676.267 853.285c26.923 0 53.803-3.797 79.36-12.373 157.483-51.2 214.229-224 166.827-375.038-26.88-77.184-70.827-147.627-128.384-205.184-82.389-79.787-172.8-150.613-270.123-211.627l-10.667-6.443-11.093 6.869c-97.663 60.587-188.586 131.413-271.743 211.627-57.173 57.557-101.163 127.573-128.469 204.757-48.213 151.038 8.533 323.838 167.723 375.934 12.373 4.267 25.131 7.253 37.931 8.917h5.12c11.989 1.749 23.893 2.56 35.84 2.56h4.693c26.88-0.811 52.907-5.504 78.122-14.080h2.517c1.707-0.811 2.987-1.707 3.84-2.517 9.429-3.029 18.347-6.443 26.88-11.136l16.213-7.253c3.917-2.089 8.316-5.282 12.117-8.041 2.406-1.748 4.574-3.322 6.229-4.332 0.695-0.41 1.404-0.823 2.116-1.24 3.661-2.136 7.471-4.361 10.684-6.824 47.403 36.224 104.96 55.851 164.267 55.424zM789.76 546.085c17.493 0.469 32.427 14.507 33.707 32.469v5.077c1.28 59.776-34.944 113.92-90.027 134.827-17.493 6.016-36.693-3.413-43.093-21.333-5.973-17.92 3.413-37.547 21.333-43.904 27.349-10.24 45.653-37.163 45.653-66.987v-1.323c-0.811-9.771 2.133-19.2 8.107-26.453s14.933-11.477 24.32-12.373z" />
<glyph unicode="&#xe925;" glyph-name="fill-hide" d="M418.273 309.222c26.642-18.061 59.116-28.983 93.672-28.983 91.588 0 166.11 75.191 166.11 167.603 0 34.863-10.825 67.631-28.727 94.513l-45.376-45.788c7.492-14.281 11.657-31.083 11.657-48.725 0-57.549-46.63-104.593-103.663-104.593-17.485 0-34.138 4.198-48.294 11.759l-45.377-45.786zM786.295 680.554c60.365-55.447 111.573-130.217 149.875-220.108 3.328-7.983 3.328-17.225 0-24.785-89.092-209.19-247.71-334.366-424.226-334.366h-0.418c-80.346 0-157.366 26.466-225.225 74.769l-80.765-81.489c-6.245-6.302-14.155-9.242-22.065-9.242s-16.236 2.94-22.065 9.242c-10.408 10.5-12.073 27.302-3.747 39.484l1.249 1.681 615.73 621.265c0.832 0.84 1.664 1.68 2.082 2.52v0c0.832 0.84 1.664 1.68 2.082 2.52l39.134 39.485c12.489 12.182 32.055 12.182 44.126 0 12.493-12.182 12.493-32.344 0-44.526l-75.767-76.451zM345.53 447.68c0-10.923 1.249-21.845 2.915-31.927l-154.037-155.418c-41.631 48.725-77.851 107.533-106.577 175.164-3.33 7.561-3.33 16.802 0 24.781 89.091 209.189 247.708 333.946 423.811 333.946h0.414c59.533 0 117.402-14.282 170.688-41.165l-139.046-140.299c-9.993 1.68-20.817 2.94-31.642 2.94-92.005 0-166.525-75.19-166.525-168.021z" />
<glyph unicode="&#xe926;" glyph-name="fill-home" d="M389.751 73.673v130.462c0 33.301 27.195 60.301 60.741 60.301h122.633c16.111 0 31.561-6.353 42.953-17.664 11.392-11.307 17.792-26.645 17.792-42.637v-130.462c-0.102-13.845 5.367-27.162 15.194-36.988s23.198-15.351 37.141-15.351h83.665c39.074-0.098 76.587 15.241 104.252 42.633s43.213 64.589 43.213 103.381v371.667c0 31.334-13.99 61.057-38.204 81.16l-284.612 225.655c-49.506 39.565-120.444 38.288-168.474-3.034l-278.118-222.621c-25.356-19.511-40.51-49.321-41.259-81.16v-371.287c0-80.853 66.022-146.394 147.463-146.394h81.754c28.968 0 52.51 23.202 52.72 51.959l1.146 0.38z" />
<glyph unicode="&#xe927;" glyph-name="fill-image-1" d="M325.888 815.147c-109.952 0-180.992-75.392-180.992-191.701v-350.464c0-32.64 6.059-61.781 16.427-86.997 0.448 0.533 10.213 12.433 22.951 27.959 24.895 30.336 61.147 74.513 61.401 74.739 29.525 33.707 84.949 83.968 157.696 53.547 15.941-6.609 30.11-15.663 43.153-24 1.271-0.811 2.53-1.617 3.78-2.411 24.448-16.341 38.827-24.021 53.76-22.741 6.187 0.853 11.989 2.688 17.493 6.101 20.762 12.8 74.59 89.071 90.709 111.91 2.364 3.349 3.917 5.551 4.437 6.234 46.507 60.587 118.187 76.8 177.92 40.96 8.021-4.779 65.493-44.928 84.523-61.056v226.219c0 116.309-71.040 191.701-181.376 191.701h-371.883zM697.771 874.667c144.085 0 240.896-100.779 240.896-251.221v-350.464c0-3.785-0.397-7.33-0.794-10.88-0.282-2.492-0.559-4.979-0.7-7.552-0.090-1.553-0.137-3.11-0.179-4.663-0.060-2.074-0.119-4.143-0.29-6.217-0.085-0.811-0.247-1.591-0.405-2.368s-0.32-1.557-0.405-2.368c-1.408-13.397-3.584-26.197-6.613-38.613-0.717-3.102-1.545-6.093-2.377-9.114l-0.183-0.657c-3.413-12.032-7.424-23.509-12.245-34.475-0.845-1.843-1.737-3.639-2.628-5.44-0.593-1.195-1.186-2.394-1.766-3.605-5.205-10.453-10.837-20.48-17.365-29.781-1.207-1.724-2.492-3.337-3.78-4.954-0.849-1.067-1.702-2.133-2.534-3.238-6.784-8.789-13.867-17.195-21.888-24.832-1.6-1.523-3.332-2.918-5.065-4.309-1.079-0.87-2.163-1.741-3.213-2.645-8.235-7.083-16.64-13.867-25.899-19.669-2.022-1.271-4.169-2.334-6.306-3.396-1.382-0.687-2.765-1.37-4.105-2.108-9.429-5.205-18.944-10.283-29.312-14.208-2.496-0.947-5.15-1.634-7.812-2.321-1.89-0.486-3.785-0.977-5.628-1.562-0.922-0.286-1.847-0.572-2.769-0.858-9.259-2.884-18.492-5.756-28.463-7.462-5.777-1.011-11.908-1.399-18.044-1.792-2.658-0.166-5.312-0.337-7.94-0.555-2.825-0.209-5.598-0.55-8.371-0.892-4.51-0.559-9.033-1.114-13.815-1.114h-371.883c-16.043 0-31.36 1.621-46.165 4.053-0.555 0.085-1.067 0.171-1.579 0.256-57.728 9.941-105.643 37.803-139.221 79.829-0.233 0-0.325 0.158-0.447 0.367-0.079 0.137-0.171 0.294-0.321 0.444-33.749 42.496-52.821 99.627-52.821 166.699v350.464c0 150.443 96.896 251.221 240.555 251.221h371.883zM469.359 596.712c0-57.811-48.372-106.028-106.46-106.028-51.059 0-94.594 37.303-104.351 85.605-1.612 7.247-2.522 14.7-2.522 22.4 0 58.223 47.297 105.329 105.757 105.329 29.768 0 56.724-12.518 76.033-32.488 19.388-19.27 31.543-45.829 31.543-74.817z" />
<glyph unicode="&#xe928;" glyph-name="fill-image" d="M327.090 21.333h369.776c144.653 0 241.801 101.466 241.801 252.446v348.441c0 150.981-97.148 252.447-241.758 252.447h-369.818c-144.609 0-241.757-101.466-241.757-252.447v-348.441c0-150.98 97.148-252.446 241.757-252.446zM362.618 490.667c-58.822 0-106.618 47.86-106.618 106.667s47.796 106.667 106.618 106.667c58.779 0 106.617-47.86 106.617-106.667s-47.838-106.667-106.617-106.667zM845.687 322.816c14.289-36.634 6.865-80.666-8.41-116.945-18.103-43.153-52.77-75.823-96.448-90.091-19.392-6.34-39.731-9.114-60.023-9.114h-359.584c-35.782 0-67.446 8.585-93.403 24.572-16.261 10.035-19.135 33.199-7.079 48.213 20.165 25.097 40.073 50.283 60.152 75.691 38.271 48.61 64.057 62.699 92.717 50.325 11.627-5.107 23.297-12.766 35.311-20.868 32.007-21.751 76.5-51.648 135.107-19.2 40.107 22.464 63.369 60.996 83.627 94.549l0.337 0.559c1.438 2.355 2.859 4.71 4.275 7.057 6.81 11.264 13.525 22.379 21.124 32.619 9.527 12.813 44.834 52.881 90.573 24.346 29.133-17.963 53.632-42.27 79.846-68.292 9.997-9.95 17.118-21.265 21.879-33.421z" />
<glyph unicode="&#xe929;" glyph-name="fill-circle" d="M85.333 448.043c0 235.476 191.147 426.666 426.667 426.666 235.947 0 426.667-191.189 426.667-426.666 0-235.563-190.72-426.667-426.667-426.667-235.52 0-426.667 191.104-426.667 426.667zM474.453 609.748c0 20.437 17.067 37.547 37.547 37.547s37.12-17.109 37.12-37.547v-188.586c0-20.523-16.64-37.12-37.12-37.12s-37.547 16.597-37.547 37.12v188.586zM512.427 248.32c-20.907 0-37.547 17.067-37.547 37.547s16.64 37.12 37.12 37.12c20.907 0 37.547-16.64 37.547-37.12s-16.64-37.547-37.12-37.547z" />
<glyph unicode="&#xe92a;" glyph-name="fill-square" d="M327.253 874.708h369.92c144.64 0 241.493-101.547 241.493-252.587v-348.628c0-150.613-96.853-252.117-241.493-252.117h-369.92c-144.64 0-241.92 101.504-241.92 252.117v348.628c0 151.040 97.28 252.587 241.92 252.587zM511.573 573.439c-20.053 0-36.693 16.683-36.693 37.12 0 20.907 16.64 37.547 37.547 37.547 20.48 0 37.12-16.64 37.12-37.547 0-20.437-16.64-37.12-37.973-37.12zM549.12 286.72c0-20.48-16.64-37.12-37.547-37.12-20.48 0-37.12 16.64-37.12 37.12v188.587c0 20.523 16.64 37.547 37.12 37.547 20.907 0 37.547-17.024 37.547-37.547v-188.587z" />
<glyph unicode="&#xe92b;" glyph-name="fill-location" d="M149.333 519.774c0 196.263 164.006 354.893 362.385 354.893 198.942 0 362.948-158.63 362.948-354.893 0-98.897-35.968-190.711-95.168-268.535-65.31-85.841-145.805-160.636-236.416-219.341-20.736-13.568-39.45-14.592-62.212 0-91.121 58.705-171.619 133.5-236.369 219.341-59.244 77.824-95.168 169.638-95.168 268.535zM392.287 508.723c0-65.745 53.652-117.457 119.431-117.457 65.826 0 119.996 51.712 119.996 117.457 0 65.237-54.17 119.465-119.996 119.465-65.779 0-119.431-54.228-119.431-119.465z" />
<glyph unicode="&#xe92c;" glyph-name="fill-lock" d="M747.635 644.437c0 127.199-105.353 230.23-236.284 230.23-129.2 0-234.554-103.031-234.987-230.23v-65.423c-73.444-22.938-127.031-89.461-127.031-168.919v-210.641c0-98.368 81.551-178.121 182.135-178.121h361.105c100.54 0 182.093 79.753 182.093 178.121v210.641c0 79.458-53.542 145.981-127.031 168.919v65.423zM512.218 800.468c88.009 0 159.548-69.959 159.548-156.031v-56.221h-319.529v57.070c0.433 85.647 71.97 155.183 159.982 155.183zM549.935 257.924c0-20.779-16.909-37.312-38.153-37.312-20.809 0-37.717 16.533-37.717 37.312v94.127c0 20.352 16.909 36.885 37.717 36.885 21.244 0 38.153-16.533 38.153-36.885v-94.127z" />
<glyph unicode="&#xe92d;" glyph-name="fill-login" d="M507.14 874.667h215.010c107.503 0 195.183-85.333 195.183-189.44v-474.453c0-104.533-87.68-189.44-196.066-189.44h-214.566c-107.507 0-195.625 84.907-195.625 189.013v204.8h273.168l-70.494-68.267c-13.218-12.8-13.218-33.707 0-46.507 6.609-6.4 15.42-9.387 24.23-9.387 8.371 0 17.186 2.987 23.795 9.387l128.653 124.16c6.609 5.973 10.133 14.507 10.133 23.467 0 8.533-3.524 17.067-10.133 23.040l-128.653 124.16c-13.218 12.8-34.807 12.8-48.026 0s-13.218-33.707 0-46.507l70.494-67.84h-273.168v203.947c0 104.533 88.119 189.867 196.065 189.867zM106.667 448.004c0 17.92 15.156 32.853 33.344 32.853h171.052v-65.707h-171.052c-18.188 0-33.344 14.507-33.344 32.853z" />
<glyph unicode="&#xe92e;" glyph-name="fill-logout" d="M422.202 480.853c-18.667 0-33.426-14.507-33.426-32.853 0-17.92 14.76-32.853 33.426-32.853h260.465v-203.947c0-104.533-86.387-189.867-193.178-189.867h-211.412c-106.356 0-192.744 84.907-192.744 189.44v474.027c0 104.96 86.822 189.867 193.178 189.867h211.843c105.924 0 192.311-84.907 192.311-189.44v-204.373h-260.465zM837.555 595.618l124.587-124.16c6.4-6.4 9.813-14.507 9.813-23.467 0-8.533-3.413-17.067-9.813-23.040l-124.587-124.16c-6.4-6.4-14.933-9.813-23.040-9.813-8.533 0-17.067 3.413-23.467 9.813-12.8 12.8-12.8 33.707 0 46.507l68.267 67.84h-176.64v65.707h176.64l-68.267 67.84c-12.8 12.8-12.8 33.707 0 46.507 12.8 13.227 33.707 13.227 46.507 0.427z" />
<glyph unicode="&#xe92f;" glyph-name="fill-message" d="M722.731 832c57.216 0 112.256-22.613 152.747-63.189 40.533-40.491 63.189-95.104 63.189-152.277v-337.067c0-119.040-96.853-215.467-215.936-215.467h-421.504c-119.083 0-215.893 96.427-215.893 215.467v337.067c0 119.040 96.384 215.467 215.893 215.467h421.504zM790.613 552.96l3.413 3.413c10.197 12.373 10.197 30.293-0.469 42.667-5.931 6.357-14.080 10.24-22.571 11.093-8.96 0.469-17.493-2.56-23.936-8.533l-192.384-153.6c-24.747-20.523-60.203-20.523-85.333 0l-192 153.6c-13.269 9.813-31.616 8.533-42.667-2.987-11.52-11.52-12.8-29.867-3.029-42.667l5.589-5.547 194.133-151.467c23.893-18.773 52.864-29.013 83.2-29.013 30.251 0 59.733 10.24 83.584 29.013l192.469 154.027z" />
<glyph unicode="&#xe930;" glyph-name="fill-more-circle" d="M481.28 873.643c-89.088-8.021-164.693-37.419-233.813-90.88-18.731-14.507-55.893-51.669-70.272-70.229-43.136-55.765-70.997-116.651-83.968-183.595-17.536-90.667-5.035-185.173 35.541-267.819 22.144-45.099 46.123-78.592 81.963-114.389 35.883-35.925 69.504-59.989 114.389-81.877 55.467-27.093 109.525-40.619 171.52-42.923 209.451-7.893 394.155 138.965 434.133 345.131 40.363 208.299-78.805 414.251-280.149 484.352-40.661 14.165-82.347 21.333-129.237 22.272-17.835 0.341-35.883 0.341-40.107-0.043zM335.659 496.64c20.821-6.187 35.371-26.197 35.371-48.64 0-35.584-34.773-60.117-67.755-47.787-30.592 11.477-42.709 47.915-25.131 75.605 11.947 18.859 35.499 27.349 57.515 20.821zM526.805 496.64c20.821-6.187 35.371-26.197 35.371-48.64 0-35.584-34.773-60.117-67.755-47.787-30.592 11.477-42.709 47.915-25.131 75.605 11.947 18.859 35.499 27.349 57.515 20.821zM717.952 496.64c20.821-6.187 35.371-26.197 35.371-48.64 0-35.584-34.773-60.117-67.755-47.787-30.592 11.477-42.709 47.915-25.131 75.605 11.947 18.859 35.499 27.349 57.515 20.821z" />
<glyph unicode="&#xe931;" glyph-name="fill-more-square" d="M302.080 873.515c-86.827-8.619-152.747-52.096-189.355-124.928-6.784-13.483-17.749-46.293-21.248-63.445-5.717-28.117-6.101-43.776-6.144-238.336 0-163.157 0.427-198.059 2.56-214.187 7.68-58.368 30.592-107.435 67.285-144.427 25.088-25.216 54.869-43.093 91.179-54.741 36.139-11.563 22.869-10.965 255.403-11.691 150.357-0.427 215.68-0.043 227.84 1.323 115.883 13.227 194.987 96.213 207.36 217.557 1.365 13.184 1.707 78.933 1.237 220.16-0.725 217.344-0.299 206.165-9.771 241.237-21.163 78.123-73.301 134.699-146.859 159.403-15.445 5.205-34.603 9.173-55.381 11.477-14.037 1.579-408.747 2.133-424.107 0.597zM341.675 494.464c9.984-4.395 21.163-15.531 25.813-25.728 5.632-12.245 5.163-30.592-1.067-43.307-5.76-11.733-15.573-20.565-27.989-25.216-45.483-16.981-86.443 34.389-60.288 75.605 13.056 20.565 40.789 28.715 63.531 18.645zM532.821 494.464c9.984-4.395 21.163-15.531 25.813-25.728 5.632-12.245 5.163-30.592-1.067-43.307-5.76-11.733-15.573-20.565-27.989-25.216-45.483-16.981-86.443 34.389-60.288 75.605 13.056 20.565 40.789 28.715 63.531 18.645zM717.952 496.64c20.821-6.187 35.371-26.197 35.371-48.64 0-35.584-34.773-60.117-67.755-47.787-30.592 11.477-42.709 47.915-25.131 75.605 11.947 18.859 35.499 27.349 57.515 20.821z" />
<glyph unicode="&#xe932;" glyph-name="fill-notification" d="M798.17 584.69c0-53.588 14.161-85.17 45.329-121.569 23.62-26.816 31.168-61.235 31.168-98.577 0-37.299-12.254-72.708-36.809-101.457-32.141-34.466-77.474-56.465-123.738-60.292-67.042-5.713-134.123-10.526-202.099-10.526-68.019 0-135.059 2.876-202.101 10.526-46.306 3.827-91.636 25.826-123.737 60.292-24.553 28.749-36.85 64.158-36.85 101.457 0 37.342 7.59 71.761 31.168 98.577 32.143 36.399 45.373 67.981 45.373 121.569v18.177c0 71.764 17.895 118.689 54.745 164.627 54.787 66.993 142.607 107.173 229.495 107.173h3.814c88.755 0 179.413-42.113 233.271-111.985 34.94-44.992 50.97-89.941 50.97-159.814v-18.177zM387.143 104.073c0 21.483 19.718 31.326 37.952 35.537 21.33 4.51 151.301 4.51 172.63 0 18.236-4.211 37.952-14.054 37.952-35.537-1.062-20.454-13.060-38.592-29.641-50.108-21.5-16.759-46.729-27.371-73.105-31.198-14.588-1.89-28.919-1.933-42.999 0-26.419 3.827-51.648 14.438-73.106 31.241-16.623 11.473-28.623 29.611-29.684 50.065z" />
<glyph unicode="&#xe933;" glyph-name="fill-paper-download" d="M518.549 250.027l121.237 122.453c12.254 12.8 12.254 32.853-0.422 45.227-12.25 12.373-32.102 12.373-44.356 0l-67.166-68.267v205.653c0 17.92-13.939 32-31.262 32-17.318 0-31.684-14.080-31.684-32v-205.653l-67.167 68.267c-12.251 12.373-32.105 12.373-44.356 0s-12.251-32.427 0-45.227l120.82-122.453c2.957-2.987 6.336-5.12 10.138-6.827s8.026-2.56 12.25-2.56c4.224 0 8.026 0.853 11.827 2.56 3.806 1.707 7.185 3.84 10.142 6.827zM824.67 574.907c9.929 0.115 20.74 0.239 30.566 0.239 10.982 0 19.43-8.533 19.43-19.2v-343.040c0-105.813-85.333-191.573-190.097-191.573h-335.843c-110.257 0-199.393 90.027-199.393 200.96v459.947c0 105.813 84.911 192.427 190.522 192.427h225.585c10.56 0 19.43-8.96 19.43-19.627v-137.387c0-78.080 63.369-142.080 141.099-142.507 17.852 0 33.826-0.136 47.774-0.254 10.803-0.091 20.39-0.173 28.685-0.173 6.016 0 13.811 0.090 22.242 0.187zM836.459 637.18c-34.684-0.128-75.618 0-105.062 0.299-46.724 0-85.21 38.869-85.21 86.059v112.469c0 18.389 22.097 27.52 34.684 14.251 32.529-34.129 82.321-86.43 124.412-130.639 17.054-17.913 32.845-34.498 45.705-48.006 12.339-12.928 3.298-34.389-14.528-34.432z" />
<glyph unicode="&#xe934;" glyph-name="fill-paper-fail" d="M599.659 308.907c12.25 12.373 12.25 32.427 0 44.8l-51.541 52.053 51.541 52.053c12.25 12.373 12.25 32.427 0 44.8-12.254 12.8-32.529 12.8-44.779 0l-51.541-52.053-51.537 52.053c-12.25 12.8-32.105 12.8-44.356 0-12.25-12.373-12.25-32.427 0-44.8l51.537-52.053-51.537-52.053c-12.25-12.373-12.25-32.427 0-44.8 5.914-6.4 13.941-9.387 21.969-9.387 8.026 0 16.474 2.987 22.387 9.387l51.537 52.053 51.541-52.053c6.336-6.4 14.362-9.387 22.387-9.387s16.051 2.987 22.391 9.387zM824.977 574.909c9.95 0.114 20.715 0.238 30.259 0.238 10.982 0 19.43-8.533 19.43-19.2v-343.040c0-105.813-84.911-191.573-190.097-191.573h-335.843c-110.257 0-199.393 90.027-199.393 200.96v459.947c0 105.813 85.333 192.427 190.522 192.427h225.585c10.56 0 19.43-8.96 19.43-19.627v-137.387c0-78.080 63.791-142.080 141.099-142.507 17.852 0 33.826-0.136 47.774-0.254 10.803-0.091 20.39-0.173 28.685-0.173 6.054 0 13.999 0.091 22.549 0.189zM836.506 637.175c-34.722-0.128-75.614 0-105.058 0.299-46.724 0-85.21 38.869-85.21 86.059v112.469c0 18.389 22.097 27.52 34.684 14.251 32.529-34.128 82.321-86.428 124.407-130.636 17.058-17.914 32.845-34.499 45.709-48.009 12.297-12.928 3.298-34.389-14.532-34.432z" />
<glyph unicode="&#xe935;" glyph-name="fill-paper-negative" d="M368.158 405.76c0-17.493 14.363-31.573 31.683-31.573h208.687c17.318 0 31.68 14.080 31.68 31.573 0 17.92-14.362 32-31.68 32h-208.687c-17.32 0-31.683-14.080-31.683-32zM825.092 574.907c9.929 0.115 20.74 0.239 30.566 0.239 10.56 0 19.008-8.533 19.008-19.2v-343.040c0-105.813-84.911-191.573-190.097-191.573h-335.843c-109.835 0-199.393 90.027-199.393 200.96v459.947c0 105.813 85.333 192.427 190.522 192.427h225.585c10.982 0 19.43-8.96 19.43-19.627v-137.387c0-78.080 63.791-142.080 141.099-142.507 18.057 0 33.975-0.135 47.906-0.253 10.837-0.092 20.471-0.174 28.975-0.174 6.016 0 13.811 0.090 22.242 0.187zM836.693 637.175c-34.726-0.128-75.661 0-105.105 0.299-46.72 0-85.205 38.869-85.205 86.059v112.469c0 18.389 22.093 27.52 34.726 14.251 22.865-24.015 54.293-57.027 85.572-89.886 31.189-32.761 62.229-65.37 84.501-88.759 12.335-12.928 3.294-34.389-14.49-34.432z" />
<glyph unicode="&#xe936;" glyph-name="fill-paper-plus" d="M535.445 374.187h73.084c17.318 0 31.68 14.080 31.68 31.573 0 17.92-14.362 32-31.68 32h-73.084v73.813c0 17.493-13.939 31.573-31.262 31.573-17.318 0-31.68-14.080-31.68-31.573v-73.813h-72.662c-17.32 0-31.683-14.080-31.683-32 0-17.493 14.363-31.573 31.683-31.573h72.662v-73.813c0-17.493 14.362-31.573 31.68-31.573 17.323 0 31.262 14.080 31.262 31.573v73.813zM825.092 574.907c9.929 0.115 20.74 0.239 30.566 0.239 10.56 0 19.008-8.533 19.008-19.2v-343.040c0-105.813-84.911-191.573-190.097-191.573h-335.843c-109.835 0-199.393 90.027-199.393 200.96v459.947c0 105.813 85.333 192.427 190.522 192.427h225.585c10.982 0 19.43-8.96 19.43-19.627v-137.387c0-78.080 63.791-142.080 141.099-142.507 18.057 0 33.975-0.135 47.906-0.253 10.837-0.092 20.471-0.174 28.975-0.174 6.016 0 13.811 0.090 22.242 0.187zM836.693 637.175c-34.726-0.128-75.661 0-105.105 0.299-46.72 0-85.205 38.869-85.205 86.059v112.469c0 18.389 22.093 27.52 34.726 14.251 22.865-24.015 54.293-57.027 85.572-89.886 31.189-32.761 62.229-65.37 84.501-88.759 12.335-12.928 3.294-34.389-14.49-34.432z" />
<glyph unicode="&#xe937;" glyph-name="fill-paper-upload" d="M595.008 410.027c12.254-12.373 32.107-12.373 44.356 0 12.676 12.373 12.676 32.427 0.422 44.8l-121.237 122.88c-2.957 2.987-6.336 5.12-10.142 6.827-3.802 1.707-7.603 2.56-11.827 2.56s-8.448-0.853-12.25-2.56c-3.802-1.707-7.181-3.84-10.138-6.827l-120.82-122.88c-12.251-12.373-12.251-32.427 0-44.8s32.105-12.373 44.356 0l67.167 68.267v-206.080c0-17.493 13.943-31.573 31.684-31.573 17.323 0 31.262 14.080 31.262 31.573v206.080l67.166-68.267zM824.67 574.907c9.929 0.115 20.74 0.239 30.566 0.239 10.56 0 19.43-8.533 19.43-19.2v-343.040c0-105.813-85.333-191.573-190.097-191.573h-335.843c-110.257 0-199.393 90.027-199.393 200.96v459.947c0 105.813 84.911 192.427 190.522 192.427h225.585c10.56 0 19.43-8.96 19.43-19.627v-137.387c0-78.080 63.369-142.080 141.099-142.507 17.766 0 33.54-0.134 47.398-0.252 10.85-0.092 20.527-0.175 29.060-0.175 6.016 0 13.811 0.090 22.242 0.187zM836.467 637.184c-34.726-0.128-75.618 0-105.062 0.299-46.724 0-85.21 38.869-85.21 86.059v112.469c0 18.389 22.054 27.52 34.684 14.251 32.525-34.124 82.308-86.417 124.395-130.622 17.062-17.92 32.858-34.51 45.722-48.023 12.297-12.928 3.255-34.389-14.528-34.432z" />
<glyph unicode="&#xe938;" glyph-name="fill-paper" d="M380.832 260.693h229.809c17.318 0 31.684 14.507 31.684 32s-14.366 31.573-31.684 31.573h-229.809c-17.32 0-31.683-14.080-31.683-31.573s14.363-32 31.683-32zM523.618 537.6h-142.787c-17.32 0-31.683-14.507-31.683-32s14.363-31.573 31.683-31.573h142.787c17.318 0 31.684 14.080 31.684 31.573s-14.366 32-31.684 32zM825.092 574.907c9.929 0.115 20.74 0.239 30.566 0.239 10.56 0 19.008-8.533 19.008-19.2v-343.040c0-105.813-84.911-191.573-189.675-191.573h-336.266c-109.835 0-199.393 90.027-199.393 200.96v459.947c0 105.813 85.333 192.427 190.522 192.427h225.585c10.982 0 19.43-8.96 19.43-19.627v-137.387c0-78.080 63.791-142.080 141.099-142.507 18.057 0 33.975-0.135 47.906-0.253 10.837-0.092 20.471-0.174 28.975-0.174 6.016 0 13.811 0.090 22.242 0.187zM836.74 637.184c-34.726-0.128-75.661 0-105.105 0.299-46.72 0-85.205 38.869-85.205 86.059v112.469c0 18.389 22.093 27.52 34.726 14.251 22.861-24.011 54.281-57.017 85.559-89.872 31.189-32.766 62.238-65.381 84.514-88.774 12.335-12.928 3.294-34.389-14.49-34.432z" />
<glyph unicode="&#xe939;" glyph-name="fill-password" d="M725.803 337.024c17.664 0 32 14.336 32 32v79.019c0 17.664-14.336 32-32 32h-242.859c-13.824 45.525-55.723 78.975-105.728 78.975-61.184 0-110.976-49.791-110.976-110.975 0-61.227 49.792-111.019 110.976-111.019 50.005 0 91.904 33.451 105.728 79.019h90.112v-47.019c0-17.664 14.336-32 32-32s32 14.336 32 32v47.019h56.747v-47.019c0-17.664 14.336-32 32-32zM327.083 874.708h369.877c144.555 0 241.707-101.461 241.707-252.459v-348.458c0-150.997-97.152-252.416-241.749-252.416h-369.835c-144.597 0-241.749 101.419-241.749 252.416v348.458c0 150.997 97.152 252.459 241.749 252.459zM330.202 448.004c0 25.941 21.12 47.019 47.019 47.019s47.019-21.077 47.019-47.019c0-25.899-21.12-46.976-47.019-46.976s-47.019 21.077-47.019 46.976z" />
<glyph unicode="&#xe93a;" glyph-name="fill-play" d="M85.333 447.753c0 235.501 191.506 426.914 426.667 426.914s426.667-191.413 426.667-426.914c0-235.004-191.505-426.419-426.667-426.419s-426.667 191.415-426.667 426.419zM668.501 404.574c4.527 4.527 10.295 11.524 11.529 13.171 6.592 8.644 9.886 19.345 9.886 30.007 0 11.981-3.708 23.095-10.709 32.149-0.572 0.576-1.698 1.796-3.162 3.392-2.739 2.978-6.669 7.262-10.428 11.017-33.771 36.224-121.907 95.5-168.030 113.612-7.002 2.84-24.713 9.056-34.185 9.468-9.062 0-17.711-2.058-25.946-6.175-10.295-5.763-18.533-14.819-23.063-25.521-2.883-7.409-7.413-29.638-7.413-30.050-4.53-24.286-7.001-63.804-7.001-107.439 0-41.617 2.471-79.445 6.178-104.145 0.102-0.102 0.456-1.869 1.007-4.612 1.673-8.341 5.158-25.724 8.878-32.845 9.060-17.289 26.77-27.994 45.714-27.994h1.647c12.356 0.414 38.302 11.115 38.302 11.524 43.657 18.116 129.728 74.509 164.322 111.97l2.475 2.47z" />
<glyph unicode="&#xe93b;" glyph-name="fill-plus-tables" d="M511.966 106.667c-31.996 0-57.967 25.984-57.967 58.005v566.657c0 32.018 25.971 58.004 57.967 58.004s57.963-25.986 57.963-58.004v-566.657c0-32.021-25.967-58.005-57.963-58.005zM795.371 390.118h-566.74c-32.073 0-57.964 25.984-57.964 58.001 0 32.021 25.891 58.005 57.964 58.005h566.74c31.996 0 57.963-25.984 57.963-58.005 0-32.017-25.967-58.001-57.963-58.001z" />
<glyph unicode="&#xe93c;" glyph-name="fill-plus" d="M312.747 874.667h398.080c145.067 0 227.84-81.92 227.84-227.413v-398.507c0-144.64-82.347-227.413-227.413-227.413h-398.507c-145.493 0-227.413 82.773-227.413 227.413v398.507c0 145.493 81.92 227.413 227.413 227.413zM546.987 412.587h121.173c19.627 0.427 35.413 16.213 35.413 35.84s-15.787 35.413-35.413 35.413h-121.173v120.32c0 19.627-15.787 35.413-35.413 35.413s-35.413-15.787-35.413-35.413v-120.32h-120.747c-9.387 0-18.347-3.84-25.173-10.24-6.4-6.827-10.24-15.744-10.24-25.173 0-19.627 15.787-35.413 35.413-35.84h120.747v-120.747c0-19.627 15.787-35.413 35.413-35.413s35.413 15.787 35.413 35.413v120.747z" />
<glyph unicode="&#xe93d;" glyph-name="fill-profile" d="M737.877 648.915c0-125.314-100.476-225.794-225.877-225.794-125.359 0-225.877 100.48-225.877 225.794s100.518 225.751 225.877 225.751c125.402 0 225.877-100.438 225.877-225.751zM512 21.333c-185.072 0-341.333 30.080-341.333 146.133 0 116.1 157.243 145.114 341.333 145.114 185.114 0 341.333-30.080 341.333-146.138 0-116.096-157.244-145.109-341.333-145.109z" />
<glyph unicode="&#xe93e;" glyph-name="fill-scan" d="M359.582 832c17.92 0 32.469-14.267 32.469-31.881 0-17.572-14.507-31.839-32.469-31.839l-69.504-0.042c-57.685-0.084-104.619-46.148-104.619-102.756v-79.327c0-17.572-14.592-31.881-32.512-31.881s-32.469 14.309-32.469 31.881v79.327c0 91.711 76.075 166.394 169.557 166.477l69.547 0.042zM665.626 831.988h67.968c93.739 0 169.941-74.725 169.941-166.645v-79.201c0-17.572-14.507-31.881-32.469-31.881-17.92 0-32.469 14.309-32.469 31.881v79.201c0 56.776-47.104 102.966-105.003 102.966h-67.968c-17.92 0-32.469 14.225-32.469 31.798 0 17.614 14.549 31.881 32.469 31.881zM629.867 672.313h-235.691c-53.931-0.544-97.28-43.764-96.811-96.69v-53.136c0.128-6.191 5.205-11.255 11.52-11.465h406.187c6.357 0.171 11.435 5.231 11.648 11.465v53.136c0.043 25.564-10.027 50.123-28.203 68.407-18.048 18.116-42.837 28.283-68.651 28.283zM75.179 446.242h873.685c17.92 0 32.469-14.268 32.469-31.885 0-17.57-14.549-31.795-32.469-31.795h-45.312v-151.876c0-91.959-76.245-166.686-169.941-166.686h-67.968c-17.963 0-32.512 14.268-32.512 31.881 0 17.574 14.549 31.842 32.512 31.842h67.968c57.899 0 105.003 46.148 105.003 102.963v151.876h-111.915v-42.3c0.427-52.928-42.88-96.188-96.853-96.691h-235.691c-53.931 0.503-97.237 43.763-96.811 96.691v42.3h-111.915v-152.043c0-56.61 46.976-102.673 104.704-102.758l69.461-0.038c17.92 0 32.469-14.268 32.469-31.842-0.043-17.613-14.549-31.881-32.512-31.881l-69.504 0.043c-93.483 0.081-169.6 74.765-169.6 166.477v152.043h-45.269c-17.92 0-32.512 14.225-32.512 31.795 0 17.617 14.592 31.885 32.512 31.885z" />
<glyph unicode="&#xe93f;" glyph-name="fill-search" d="M85.333 504.751c0 204.298 163.855 369.916 365.978 369.916 97.067 0 190.153-38.973 258.786-108.346 68.638-69.373 107.196-163.463 107.196-261.57 0-204.301-163.857-369.92-365.982-369.92-202.123 0-365.978 165.619-365.978 369.92zM811.238 206.75l108.996-87.983h1.894c22.050-22.289 22.050-58.428 0-80.717-22.054-22.289-57.805-22.289-79.859 0l-90.453 103.667c-8.55 8.614-13.359 20.314-13.359 32.516s4.809 23.902 13.359 32.516c16.491 16.38 42.927 16.38 59.422 0z" />
<glyph unicode="&#xe940;" glyph-name="fill-send" d="M914.577 849.836c-21.342 21.904-52.928 30.065-82.381 21.475l-686.788-199.717c-31.074-8.633-53.099-33.415-59.032-64.897-6.061-32.041 15.11-72.714 42.769-89.722l214.744-131.985c22.025-13.53 50.452-10.138 68.679 8.247l245.903 247.433c12.378 12.885 32.866 12.885 45.248 0 12.378-12.456 12.378-32.642 0-45.527l-246.332-247.478c-18.27-18.338-21.683-46.899-8.239-69.060l131.213-216.9c15.364-25.766 41.83-40.371 70.852-40.371 3.418 0 7.258 0 10.675 0.431 33.293 4.292 59.755 27.055 69.572 59.268l203.605 685.91c8.964 29.206 0.853 60.989-20.489 82.893z" />
<glyph unicode="&#xe941;" glyph-name="fill-setting" d="M870.498 380.587c15.262-8.107 27.038-20.907 35.319-33.707 16.137-26.453 14.827-58.88-0.87-87.467l-30.524-51.2c-16.132-27.307-46.221-44.373-77.175-44.373-15.262 0-32.269 4.267-46.221 12.8-11.337 7.253-24.418 9.813-38.37 9.813-43.17 0-79.36-35.413-80.67-77.653 0-49.067-40.115-87.467-90.257-87.467h-59.302c-50.577 0-90.694 38.4-90.694 87.467-0.872 42.24-37.063 77.653-80.23 77.653-14.389 0-27.47-2.56-38.371-9.813-13.953-8.533-31.395-12.8-46.22-12.8-31.394 0-61.481 17.067-77.614 44.373l-30.086 51.2c-16.133 27.733-17.005 61.013-0.872 87.467 6.976 12.8 20.058 25.6 34.883 33.707 12.209 5.973 20.058 15.787 27.47 27.307 21.802 36.693 8.721 84.907-28.342 106.667-43.168 24.32-57.121 78.507-32.267 120.747l29.214 50.347c25.29 42.24 79.358 57.173 122.962 32.427 37.935-20.48 87.207-6.827 109.445 29.44 6.977 11.947 10.901 24.747 10.029 37.547-0.872 16.64 3.924 32.427 12.209 45.227 16.134 26.453 45.346 43.52 77.18 44.373h61.478c32.269 0 61.483-17.92 77.615-44.373 7.851-12.8 13.082-28.587 11.772-45.227-0.87-12.8 3.055-25.6 10.031-37.547 22.238-36.267 71.509-49.92 109.879-29.44 43.17 24.747 97.673 9.813 122.526-32.427l29.214-50.347c25.293-42.24 11.337-96.427-32.265-120.747-37.065-21.76-50.146-69.973-27.908-106.667 6.976-11.52 14.827-21.333 27.034-27.307zM388.681 447.573c0-66.987 55.376-120.32 123.835-120.32 68.454 0 122.526 53.333 122.526 120.32s-54.071 120.747-122.526 120.747c-68.459 0-123.835-53.76-123.835-120.747z" />
<glyph unicode="&#xe942;" glyph-name="fill-shield-done" d="M496.128 873.557c-8.149-1.408-293.291-101.163-304.171-106.411-10.709-5.163-25.515-18.645-31.787-29.013-2.005-3.285-5.163-10.197-7.040-15.36-3.285-9.131-3.371-13.44-3.072-155.307 0.384-165.589 1.237-187.179 8.875-222.72 16.469-76.203 59.307-147.157 117.675-194.816 12.8-10.453 36.48-26.667 51.712-35.456 17.152-9.856 172.416-89.685 178.133-91.563 12.075-4.011 17.109-1.835 105.557 45.483 46.763 25.003 90.923 49.152 98.176 53.632 31.573 19.627 59.435 43.221 80.043 67.797 49.579 59.307 78.336 129.579 83.243 203.563 0.853 12.8 1.067 89.429 0.469 172.373l-1.109 149.333-3.883 10.965c-6.4 18.005-19.883 34.133-36.096 43.264-4.224 2.347-74.496 26.709-156.16 54.059-137.088 45.952-149.547 49.835-162.133 50.389-7.509 0.341-15.787 0.213-18.432-0.213zM665.515 570.709c14.037-7.893 19.413-26.411 11.733-40.277-6.144-11.136-172.672-174.251-182.187-178.475-9.429-4.224-22.144-3.115-30.165 2.603-3.029 2.133-24.533 22.315-47.744 44.843-50.347 48.811-53.461 53.717-45.312 71.723 7.68 16.896 28.032 23.893 44.544 15.275 2.347-1.237 17.92-15.36 34.517-31.403 16.64-16.043 30.72-29.184 31.317-29.184s33.707 32 73.515 71.125c39.808 39.083 73.984 72.235 75.989 73.643 8.704 6.101 23.083 6.144 33.792 0.128z" />
<glyph unicode="&#xe943;" glyph-name="fill-shield-fail" d="M819.255 775.31c31.778-10.46 53.248-39.789 53.248-72.423l2.15-283.205c0.427-85.773-30.921-169.028-88.465-234.342-26.197-30.123-60.122-55.646-103.066-78.656l-152.448-81.583c-4.723-2.513-9.877-3.767-15.027-3.767-5.154 0-10.739 1.254-15.462 3.767l-153.736 79.492c-43.373 22.592-77.298 47.697-103.923 77.402-58.403 64.431-91.040 147.691-91.469 233.459l-1.718 283.291c-0.43 32.634 21.042 61.879 52.391 72.799l282.139 98.698c16.747 5.9 35.213 5.9 52.39 0l282.995-94.932zM615.275 358.972c12.454 12.134 12.454 32.218 0 44.348l-57.975 56.525 57.975 56.444c12.454 12.13 12.454 31.796 0 44.389-12.454 12.133-33.067 12.133-45.521 0l-57.971-56.524-57.975 56.524c-12.454 12.133-32.636 12.133-45.519 0-12.454-12.593-12.454-32.259 0-44.389l57.974-56.444-57.974-56.525c-12.454-12.13-12.454-32.213 0-44.348 6.442-6.276 14.601-9.161 22.761-9.161 8.589 0 16.747 2.884 22.758 9.161l57.975 56.482 57.971-56.482c6.443-6.276 14.601-9.161 22.763-9.161 8.158 0 16.747 2.884 22.758 9.161z" />
<glyph unicode="&#xe944;" glyph-name="fill-show" d="M345.496 448c0-91.021 74.511-165.082 166.504-165.082 91.575 0 166.089 74.061 166.089 165.082 0 91.436-74.513 165.495-166.089 165.495-91.994 0-166.504-74.059-166.504-165.495zM756.762 702.035c72.845-56.268 134.869-138.602 179.409-241.623 3.328-7.859 3.328-16.964 0-24.41-89.079-206.042-247.676-329.335-424.171-329.335h-0.418c-176.076 0-334.671 123.294-423.751 329.335-3.33 7.445-3.33 16.55 0 24.41 89.079 206.042 247.674 328.922 423.751 328.922h0.418c88.247 0 171.917-30.617 244.762-87.299zM512.051 345.071c57.028 0 103.646 46.336 103.646 103.019 0 57.097-46.618 103.436-103.646 103.436-4.996 0-9.993-0.414-14.571-1.242-1.664-45.512-39.13-81.919-85.333-81.919h-2.081c-1.249-6.622-2.081-13.239-2.081-20.275 0-56.683 46.62-103.019 104.066-103.019z" />
<glyph unicode="&#xe945;" glyph-name="fill-star" d="M764.54 349.013c-11.051-10.709-16.128-26.197-13.611-41.387l37.931-209.92c3.2-17.792-4.309-35.797-19.2-46.080-14.592-10.667-34.005-11.947-49.92-3.413l-188.971 98.56c-6.571 3.499-13.867 5.376-21.333 5.589h-11.563c-4.011-0.597-7.936-1.877-11.52-3.84l-189.014-99.029c-9.344-4.693-19.925-6.357-30.293-4.693-25.259 4.779-42.112 28.843-37.973 54.229l37.973 209.92c2.517 15.317-2.56 30.891-13.611 41.771l-154.069 149.333c-12.885 12.501-17.365 31.275-11.477 48.213 5.717 16.896 20.309 29.227 37.931 32l212.053 30.763c16.128 1.664 30.293 11.477 37.547 25.984l93.441 191.573c2.219 4.267 5.077 8.192 8.533 11.52l3.84 2.987c2.005 2.219 4.309 4.053 6.869 5.547l4.651 1.707 7.253 2.987h17.963c16.043-1.664 30.165-11.264 37.547-25.6l94.677-190.72c6.827-13.952 20.096-23.637 35.413-25.984l212.053-30.763c17.92-2.56 32.896-14.933 38.827-32 5.589-17.109 0.768-35.883-12.373-48.213l-159.573-151.040z" />
<glyph unicode="&#xe946;" glyph-name="fill-swap" d="M321.97 820.142c7.090-5.118 18.525-16.876 18.525-16.876 44.391-41.606 111.255-145.088 132.724-197.589 0.448 0 13.184-31.217 13.683-46.065v-1.976c0-22.754-12.736-44.040-33.207-54.933-8.439-4.493-28.968-8.67-38.872-10.684-3.28-0.67-5.395-1.101-5.519-1.225-29.261-4.463-74.152-7.398-123.437-7.398-51.732 0-98.569 2.935-127.381 8.41-0.5 0-26.815 5.423-35.603 8.922-12.684 5.419-23.419 15.351-30.26 27.721-4.893 9.88-7.29 20.319-7.29 31.164 0.449 11.402 7.79 32.687 11.185 41.099 21.472 55.491 91.729 161.456 134.672 202.048 4.461 4.527 9.538 9.27 13.070 12.57 1.885 1.76 3.33 3.111 4.007 3.798 10.736 8.413 23.919 12.872 38.1 12.872 12.634 0 25.317-3.953 35.603-11.858zM777.754 526.43c0-22.349-17.826-40.439-39.846-40.439s-39.846 18.091-39.846 40.439l-10.987 195.364c0 28.481 22.771 51.539 50.833 51.539s50.782-23.058 50.782-51.539l-10.935-195.364zM901.116 395.281c12.685-5.474 23.42-15.356 30.259-27.721 4.894-9.882 7.292-20.322 7.292-31.219-0.448-11.349-7.791-32.687-11.234-41.097-21.423-55.445-91.729-161.412-134.622-202.052-4.386-4.42-9.37-9.071-12.894-12.361h-0.004c-1.967-1.839-3.482-3.251-4.181-3.959-10.786-8.414-23.919-12.873-38.050-12.873-12.732 0-25.417 3.951-35.652 11.908-7.091 5.069-18.526 16.828-18.526 16.828-44.442 41.553-111.253 145.088-132.723 197.594-0.499 0-13.184 31.164-13.683 46.012v1.98c0 22.805 12.685 44.087 33.207 54.985 8.422 4.446 28.885 8.631 38.814 10.667v0c3.315 0.678 5.453 1.114 5.577 1.242 29.261 4.459 74.155 7.398 123.439 7.398 51.729 0 98.569-2.94 127.381-8.41 0.448 0 26.812-5.423 35.601-8.922zM286.103 410.005c-22.021 0-39.847-18.095-39.847-40.439l-10.985-195.362c0-28.48 22.77-51.537 50.833-51.537s50.783 23.057 50.783 51.537l-10.935 195.362c0 22.345-17.826 40.439-39.847 40.439z" />
<glyph unicode="&#xe947;" glyph-name="fill-tick-square" d="M327.253 874.667h369.92c144.64 0 241.493-101.547 241.493-252.587v-348.629c0-150.571-96.853-252.117-241.493-252.117h-369.92c-144.64 0-241.92 101.547-241.92 252.117v348.629c0 151.040 97.28 252.587 241.92 252.587zM487.68 320.427l202.667 202.667c14.507 14.507 14.507 37.973 0 52.907-14.507 14.507-38.4 14.507-52.907 0l-176.213-176.213-74.667 74.667c-14.507 14.507-38.4 14.507-52.907 0s-14.507-37.973 0-52.907l101.547-101.12c7.253-7.253 16.64-10.667 26.027-10.667 9.813 0 19.2 3.413 26.453 10.667z" />
<glyph unicode="&#xe948;" glyph-name="fill-ticket-star" d="M843.136 447.957c0-34.709 28.501-62.95 63.531-62.95 17.664 0 32-14.204 32-31.706v-114.189c0-96.563-79.275-175.113-176.725-175.113h-499.84c-97.451 0-176.768 78.549-176.768 175.113v114.189c0 17.502 14.336 31.706 32 31.706 35.072 0 63.573 28.241 63.573 62.95 0 33.822-27.349 59.273-63.573 59.273-8.491 0-16.597 3.341-22.613 9.301s-9.387 14.037-9.387 22.406l0.085 117.91c0 96.56 79.275 175.153 176.725 175.153h499.712c97.451 0 176.768-78.592 176.768-175.153l0.043-114.232c0-8.371-3.371-16.489-9.344-22.406-6.016-5.961-14.123-9.301-22.656-9.301-35.029 0-63.531-28.241-63.531-62.95zM608.085 420.352l50.304 48.533c8.747 8.371 11.776 20.715 7.979 32.128-3.755 11.418-13.568 19.533-25.429 21.184l-69.504 10.061-31.104 62.4c-5.333 10.738-16.171 17.418-28.245 17.46h-0.085c-12.032 0-22.869-6.68-28.288-17.418l-31.104-62.442-69.376-10.018c-11.989-1.694-21.803-9.809-25.6-21.227-3.755-11.413-0.725-23.757 7.979-32.128l50.304-48.533-11.861-68.617c-2.048-11.836 2.773-23.59 12.587-30.652 5.547-3.93 11.989-5.961 18.517-5.961 4.992 0 10.027 1.229 14.635 3.635l62.208 32.384 62.080-32.299c10.752-5.705 23.509-4.817 33.28 2.283 9.856 7.019 14.677 18.773 12.629 30.609l-11.904 68.617z" />
<glyph unicode="&#xe949;" glyph-name="fill-ticket" d="M929.587 510.336c-5.777-5.615-13.615-8.819-21.867-8.819-30.537 0-55.296-24.055-55.296-53.316 0-29.461 24.469-53.393 54.716-53.717 17.041-0.158 31.526-11.703 31.526-28.258v-102.822c0-86.545-72.213-156.736-161.34-156.736h-134.519c-13.909 0-25.173 10.944-25.173 24.452v86.588c0 16.836-13.615 30.063-30.946 30.063-16.917 0-30.95-13.227-30.95-30.063v-86.588c0-13.508-11.264-24.452-25.126-24.452h-283.937c-88.717 0-161.341 70.153-161.341 156.736v102.822c0 16.555 14.484 28.1 31.526 28.258 30.287 0.324 54.716 24.256 54.716 53.717 0 28.463-23.933 50.108-55.293 50.108-8.253 0-16.093 3.209-21.87 8.819s-9.078 13.227-9.078 21.244v103.825c0 86.426 72.789 157.137 161.754 157.137h283.524c13.862 0 25.126-10.944 25.126-24.453v-102.62c0-16.436 14.033-30.065 30.95-30.065 17.331 0 30.946 13.629 30.946 30.065v102.62c0 13.509 11.264 24.453 25.173 24.453h134.519c89.126 0 161.34-70.151 161.34-156.737v-101.017c0-8.017-3.302-15.633-9.079-21.244zM586.688 325.538c17.331 0 30.946 13.628 30.946 30.063v160.346c0 16.435-13.615 30.064-30.946 30.064-16.917 0-30.95-13.629-30.95-30.064v-160.346c0-16.435 14.033-30.063 30.95-30.063z" />
<glyph unicode="&#xe94a;" glyph-name="fill-time-circle" d="M512 21.333c-235.52 0-426.667 190.72-426.667 426.667 0 235.52 191.147 426.667 426.667 426.667 235.947 0 426.667-191.147 426.667-426.667 0-235.947-190.72-426.667-426.667-426.667zM648.107 289.707c5.12-2.987 10.667-4.693 16.64-4.693 10.667 0 21.333 5.547 27.307 15.787 8.96 14.933 4.267 34.56-11.093 43.947l-151.893 90.453v197.12c0 17.92-14.507 32-32 32s-32-14.080-32-32v-215.467c0-11.093 5.973-21.333 15.787-27.307l167.253-99.84z" />
<glyph unicode="&#xe94b;" glyph-name="fill-time-square" d="M327.253 874.667h369.92c144.64 0 241.493-101.504 241.493-252.544v-348.587c0-150.656-96.853-252.203-241.493-252.203h-369.92c-144.64 0-241.92 101.547-241.92 252.203v348.587c0 151.040 97.28 252.544 241.92 252.544zM664.747 285.44c10.667 0 21.333 5.547 27.307 15.787 9.387 14.976 4.267 34.603-11.093 43.947l-151.893 90.453v197.163c0 17.451-14.080 32-32 32-17.493 0-32-14.549-32-32v-215.509c0-11.093 5.973-21.76 15.787-27.307l167.253-99.84c5.12-3.413 11.093-4.693 16.64-4.693z" />
<glyph unicode="&#xe94c;" glyph-name="fill-unlock" d="M350.979 588.328h341.553c100.582 0 182.135-79.771 182.135-178.156v-210.684c0-98.385-81.553-178.155-182.135-178.155h-361.106c-100.541 0-182.092 79.77-182.092 178.155v210.684c0 80.913 55.495 148.471 131.020 170.184l-4.726-0.551v65.011c0.867 126.758 106.264 229.851 235.464 229.851 101.018 0 190.285-62.382 223.236-154.789 3.469-9.33 2.598-19.508-1.737-28.413s-12.096-15.691-21.679-18.702c-19.507-6.743-41.186 3.392-48.555 22.9-22.114 62.806-82.765 104.79-150.4 104.79-88.489 0-159.982-69.591-160.459-154.789v-57.251l-0.52-0.085zM511.782 220.651c21.244 0 38.153 16.538 38.153 37.321v94.144c0 20.356-16.909 36.894-38.153 36.894-20.809 0-37.717-16.538-37.717-36.894v-94.144c0-20.783 16.909-37.321 37.717-37.321z" />
<glyph unicode="&#xe94d;" glyph-name="fill-upload" d="M361.209 736.587c-9.518-12.855-8.425-31.191 3.6-42.827 12.8-12.8 33.707-12.8 46.507 0l67.84 68.267v-176.64h65.707v176.64l67.84-68.267 3.678-3.174c12.855-9.521 31.194-8.463 42.829 3.174 6.4 6.4 9.813 14.933 9.813 23.467 0 8.107-3.413 16.64-9.813 23.040l-124.16 124.587-3.87 3.478c-5.517 4.151-12.343 6.335-19.17 6.335-8.96 0-17.067-3.413-23.467-9.813l-124.16-124.587-3.173-3.68zM265.863 585.168c-100.405-4.742-180.529-89.202-180.529-192.102v-211.844l0.207-9.067c4.662-102.178 87.699-184.111 189.66-184.111l482.935 0.209c100.407 4.745 180.531 89.216 180.531 192.533v211.413l-0.209 9.101c-4.685 102.554-88.111 184.077-189.658 184.077h-203.947v-260.467l-0.303-4.578c-2.206-16.444-16.124-28.847-32.55-28.847-18.347 0-32.853 14.758-32.853 33.425v260.467l-213.284-0.21z" />
<glyph unicode="&#xe94e;" glyph-name="fill-video" d="M260.823 768h247.128c103.339 0 175.488-71.212 175.488-173.265v-293.469c0-102.054-72.149-173.265-175.488-173.265h-247.128c-103.34 0-175.49 71.211-175.49 173.265v293.469c0 102.053 72.15 173.265 175.49 173.265zM851.541 666.497c18.731 9.53 40.704 8.533 58.581-2.729 17.877-11.219 28.544-30.711 28.544-52.023v-327.517c0-21.355-10.667-40.802-28.544-52.023-9.771-6.106-20.693-9.225-31.701-9.225-9.173 0-18.347 2.167-26.923 6.541l-63.189 31.881c-23.381 11.87-37.888 35.691-37.888 62.161v248.894c0 26.51 14.507 50.334 37.888 62.116l63.232 31.924z" />
<glyph unicode="&#xe94f;" glyph-name="fill-voice-1" d="M519.458 310.763h-14.925c-102.543 0-185.661 82.078-185.661 183.3v197.262c0 101.263 83.118 183.342 185.661 183.342h14.925c85.099 0 156.813-56.489 178.761-133.588 3.017-10.571-4.962-21.061-16.038-21.061h-48.316c-14.592 0-26.453-11.673-26.453-26.081v-0.041c0-14.449 11.861-26.122 26.453-26.122h44.553c14.758 0 26.743-11.796 26.743-26.367s-11.985-26.367-26.743-26.367h-44.553c-14.592 0-26.453-11.714-26.453-26.162 0-14.408 11.861-26.122 26.453-26.122h44.553c14.758 0 26.743-11.796 26.743-26.408 0-14.531-11.985-26.324-26.743-26.324h-44.553c-14.592 0-26.453-11.716-26.453-26.163 0-14.409 11.861-26.082 26.453-26.082h45.961c11.324 0 19.426-10.94 15.872-21.551-24.512-72.896-94.114-125.466-176.239-125.466zM792.004 499.934c0 22.571 18.517 40.815 41.331 40.815s41.331-18.244 41.331-40.815c0-183.629-140.774-335.258-321.314-355.622v-82.163c0-22.528-18.517-40.815-41.331-40.815-22.857 0-41.331 18.287-41.331 40.815v82.163c-180.58 20.365-321.357 171.994-321.357 355.622 0 22.571 18.516 40.815 41.332 40.815s41.332-18.244 41.332-40.815c0-152.444 125.608-276.484 280.024-276.484 154.372 0 279.983 124.041 279.983 276.484z" />
<glyph unicode="&#xe950;" glyph-name="fill-voice" d="M519.458 310.724h-14.925c-102.543 0-185.661 82.121-185.661 183.343v197.258c0 101.262 83.118 183.341 185.661 183.341h14.925c102.541 0 185.702-82.079 185.702-183.341v-197.258c0-101.222-83.162-183.343-185.702-183.343zM792.004 499.93c0 22.571 18.517 40.817 41.331 40.817s41.331-18.246 41.331-40.817c0-183.625-140.774-335.253-321.314-355.622v-82.159c0-22.528-18.517-40.815-41.331-40.815-22.857 0-41.331 18.287-41.331 40.815v82.159c-180.58 20.369-321.357 171.998-321.357 355.622 0 22.571 18.516 40.817 41.332 40.817s41.332-18.246 41.332-40.817c0-152.444 125.608-276.48 280.024-276.48 154.372 0 279.983 124.036 279.983 276.48z" />
<glyph unicode="&#xe951;" glyph-name="fill-volume-down" d="M645.956 748.539c5.508-21.484 7.748-43.013 9.899-63.763l2.014-18.872c7.706-62.985 7.706-372.412 0-435.853l-2.052-19.925c-1.911-19.631-3.895-39.94-9.549-61.611-15.006-51.26-55.006-84.514-100.425-84.514-1.434 0-2.867 0-4.48 0.047-25.084 0-52.361 15.39-67.814 28.813l-150.638 125.466h-77.357c-59.709 0-103.426 43.196-111.354 110.025-9.137 66.833-7.346 181.491 0 242.229 8.645 63.26 54.423 107.097 111.354 107.097h77.357l147.771 123.633c17.826 15.483 49.271 30.782 74.133 30.691 44.565 0 86.135-32.065 101.141-83.46zM774.298 692.975c17.873 12.506 42.33 8.016 54.558-10.077 43.268-63.718 67.145-147.132 67.145-234.897s-23.876-171.183-67.145-234.897c-7.347-10.765-19.349-17.225-32.205-17.225-8.017 0-15.77 2.475-22.353 7.147-17.737 12.642-22.127 37.653-9.809 55.791 34.266 50.479 53.124 117.679 53.124 189.184 0 71.552-18.859 138.703-53.124 189.182-12.318 18.14-7.927 43.15 9.809 55.793z" />
<glyph unicode="&#xe952;" glyph-name="fill-volume-off" d="M871.258 820.444c15.36 15.356 39.838 15.446 55.782 0.045 15.492-15.491 15.492-40.511 0.047-55.956l-731.679-731.636c-7.272-7.27-17.751-11.563-27.959-11.563-9.982 0-19.829 4.066-27.779 11.426-15.537 16.124-15.537 40.649-0.135 56.047l120.599 120.585h-1.22c-60.119 0-103.887 42.453-112.017 108.39-9.079 65.937-7.272 178.846 0 238.912 8.537 62.324 54.654 105.184 112.017 105.184h78.096l149.053 121.94c18.116 15.355 50.185 29.853 74.982 30.259 45.167 0 86.72-31.569 101.628-82.151 5.871-21.272 8.175-42.453 9.98-62.822l3.571-28.859c0.585-4.426 1.126-8.672 1.579-13.188l193.455 193.387zM634.918 374.127c6.097 5.961 19.738 10.253 25.877 8.67 16.58-4.198 19.831-27.998 19.558-46.699-0.768-54.285-2.573-92.041-5.466-115.388l-2.031-19.243-0.034-0.354c-1.933-19.354-3.93-39.381-9.677-60.749-15.040-50.492-55.377-83.281-101.222-83.281-1.489 0-2.982 0-4.518 0.047-25.335 0-52.8 15.172-68.382 28.407l-55.514 42.948c-21.092 15.671-14.859 40.691-3.025 55.189 8.836 10.79 115.051 108.297 170.837 159.509 18.918 17.365 32.038 29.41 33.596 30.942z" />
<glyph unicode="&#xe953;" glyph-name="fill-volume-up" d="M569.903 684.776c-2.146 20.751-4.386 42.28-9.886 63.763-14.989 51.395-56.508 83.46-101.026 83.46-24.828 0.092-56.237-15.208-74.044-30.691l-147.598-123.633h-77.266c-56.864 0-102.589-43.837-111.224-107.097-7.337-60.738-9.127-175.396 0-242.229 7.919-66.829 51.585-110.025 111.224-110.025h77.266l150.461-125.466c15.435-13.423 42.683-28.813 67.737-28.813 1.609-0.047 3.042-0.047 4.471-0.047 45.367 0 85.321 33.254 100.309 84.514 5.645 21.67 7.625 41.98 9.54 61.611l0.034 0.367 2.014 19.558c7.693 63.441 7.693 372.869 0 435.853l-2.014 18.872zM742.682 682.897c-12.305 18.14-36.689 22.674-54.541 10.077-17.673-12.688-22.054-37.699-9.754-55.793 34.227-50.433 53.065-117.588 53.065-189.182 0-71.552-18.837-138.748-53.065-189.184-12.301-18.095-7.919-43.102 9.801-55.791 6.622-4.672 14.362-7.147 22.323-7.147 12.843 0 24.832 6.46 32.171 17.225 43.217 63.671 67.063 147.085 67.063 234.897s-23.846 171.226-67.063 234.897zM823.044 822.568c17.805 12.643 42.278 8.016 54.494-10.078 66.931-98.531 103.795-228.027 103.795-364.486 0-136.55-36.864-266.001-103.795-364.531-7.296-10.765-19.328-17.225-32.171-17.225-7.962 0-15.659 2.475-22.281 7.147-17.715 12.689-22.101 37.653-9.843 55.791 57.894 85.295 89.796 198.528 89.796 318.818 0 120.243-31.902 233.478-89.796 318.77-12.258 18.094-7.872 43.104 9.801 55.793z" />
<glyph unicode="&#xe954;" glyph-name="fill-wallet" d="M758.14 602.377h180.527c0 144.948-86.852 229.623-234.001 229.623h-385.329c-147.152 0-234.003-84.676-234.003-227.775v-312.449c0-143.1 86.851-227.776 234.003-227.776h385.329c147.149 0 234.001 84.676 234.001 227.776v13.312h-180.527c-83.785 0-151.706 66.219-151.706 147.904s67.921 147.905 151.706 147.905v1.479zM758.14 538.777h148.668c17.596 0 31.859-13.905 31.859-31.061v-107.972c-0.205-17.071-14.349-30.861-31.859-31.057h-145.254c-42.415-0.559-79.505 27.755-89.126 68.036-4.817 25.003 1.946 50.803 18.479 70.49 16.529 19.682 41.139 31.238 67.234 31.564zM764.587 425.259h14.033c18.014 0 32.614 14.238 32.614 31.799s-14.601 31.799-32.614 31.799h-14.033c-8.614 0.098-16.913-3.166-23.040-9.071s-9.579-13.956-9.574-22.357c-0.004-17.626 14.541-31.966 32.614-32.171zM287.479 602.377h240.829c18.014 0 32.619 14.237 32.619 31.8s-14.605 31.799-32.619 31.799h-240.829c-17.867 0.001-32.409-14.012-32.617-31.43-0.001-17.623 14.542-31.967 32.617-32.169z" />
<glyph unicode="&#xe955;" glyph-name="fill-work" d="M456.721 809.857c-28.604 0-52.935-19.875-59.765-46.663h229.66c-6.827 26.788-31.159 46.663-59.763 46.663h-110.131zM691.503 763.194h84.523c89.643 0 162.641-73.883 162.641-164.617 0 0-2.56-38.411-3.413-91.902-0.085-4.233-2.138-8.38-5.508-10.889-20.531-15.164-39.317-27.695-41.024-28.557-70.861-47.526-153.207-80.969-240.93-97.604-5.722-1.122-11.354 1.856-14.259 6.955-24.589 42.603-70.519 70.34-121.745 70.34-50.884 0-97.243-27.435-122.557-70.080-2.945-5.013-8.495-7.906-14.172-6.827-86.998 16.678-169.344 50.078-239.779 96.785l-40.98 28.514c-3.415 2.159-5.55 6.050-5.55 10.368-1.28 22.037-3.415 92.896-3.415 92.896 0 90.734 72.997 164.617 162.641 164.617h84.095c8.111 62.649 60.617 111.473 124.651 111.473h110.131c64.034 0 116.54-48.823 124.651-111.473zM924.151 413.218l-1.707-0.866c-86.229-57.894-189.961-96.35-298.816-112.337-15.369-2.159-30.737 7.778-35.004 23.33-9.391 35.43-39.701 58.765-75.985 58.765h-1.28c-36.284 0-66.594-23.334-75.985-58.765-4.267-15.552-19.636-25.489-35.004-23.33-108.854 15.987-212.586 54.443-298.816 112.337-0.427 0.431-4.695 3.025-8.111 0.866-3.842-2.163-3.842-7.347-3.842-7.347l2.988-220.352c0-90.735 72.57-164.186 162.214-164.186h513.963c89.647 0 162.214 73.451 162.214 164.186l3.418 220.352c0 0 0 5.184-3.844 7.347-2.133 1.293-4.693 0.862-6.404 0zM543.804 232.179c0-18.146-14.089-32.401-32.017-32.401-17.502 0-32.017 14.255-32.017 32.401v55.74c0 17.715 14.515 32.405 32.017 32.405 17.929 0 32.017-14.69 32.017-32.405v-55.74z" />
<glyph unicode="&#xe956;" glyph-name="outline-users-1" d="M409.259 300.501c-118.571 0-259.925-15.232-259.925-87.979 0-57.685 87.467-86.955 259.925-86.955s259.925 29.568 259.925 87.808c0 57.813-87.467 87.125-259.925 87.125zM409.259 61.568c-88.576 0-323.925 0-323.925 150.955 0 151.979 243.797 151.979 323.925 151.979 139.051 0 323.925-15.659 323.925-151.125 0-151.808-243.797-151.808-323.925-151.808zM409.219 810.667c-85.547 0-155.136-69.589-155.136-155.093s69.589-155.093 155.136-155.093h1.323c41.132 0.171 79.873 16.341 108.929 45.653 29.099 29.227 45.013 68.096 44.843 109.312 0 85.632-69.589 155.221-155.094 155.221zM409.219 436.48c-120.832 0-219.136 98.304-219.136 219.093s98.304 219.093 219.136 219.093c120.79 0 219.094-98.304 219.094-219.093 0.256-58.197-22.315-113.152-63.445-154.539-41.045-41.429-95.872-64.341-154.198-64.555h-1.451zM703.219 485.043c-15.701 0-29.397 11.563-31.659 27.563-2.432 17.493 9.728 33.708 27.221 36.14 53.248 7.467 93.44 53.675 93.525 107.52 0 53.504-38.315 98.645-91.008 107.264-17.451 2.901-29.269 19.328-26.411 36.779s19.371 29.184 36.736 26.411c83.84-13.739 144.683-85.461 144.683-170.496-0.171-85.547-64.043-159.020-148.608-170.881-1.493-0.213-2.987-0.299-4.48-0.299zM848.896 172.335c-12.928 0-25.088 7.893-29.909 20.651-6.272 16.512 2.048 35.029 18.56 41.259 36.267 13.739 36.267 30.507 36.267 37.675 0 24.192-28.629 40.747-85.077 49.152-17.493 2.645-29.568 18.944-26.965 36.395 2.645 17.493 19.243 29.227 36.395 26.965 115.456-17.28 139.648-70.741 139.648-112.512 0-31.104-13.44-73.216-77.568-97.493-3.712-1.408-7.552-2.091-11.349-2.091z" />
<glyph unicode="&#xe957;" glyph-name="outline-users" d="M763.136 441.758c-15.701 0-29.397 11.563-31.659 27.563-2.432 17.536 9.728 33.707 27.264 36.139 44.373 6.229 77.867 44.716 77.952 89.602 0 44.501-31.915 82.133-75.904 89.344-17.408 2.859-29.227 19.328-26.368 36.779 2.901 17.451 19.243 29.141 36.779 26.368 75.008-12.331 129.493-76.501 129.493-152.576-0.171-76.588-57.387-142.295-133.12-152.919-1.493-0.213-2.987-0.299-4.437-0.299zM890.103 169.323c-12.885 0-25.045 7.851-29.909 20.608-6.315 16.512 2.005 35.029 18.517 41.301 28.928 11.008 28.928 23.168 28.928 29.013 0 18.688-23.765 31.744-70.613 38.741-17.451 2.645-29.525 18.901-26.923 36.437 2.603 17.493 18.816 29.141 36.437 26.88 103.381-15.488 125.099-64.043 125.099-102.059 0-23.211-9.131-65.579-70.144-88.832-3.755-1.408-7.595-2.091-11.392-2.091zM507.166 280.998c-101.375 0-222.249-12.459-222.249-71.765 0-59.776 120.875-72.32 222.249-72.32 101.376 0 222.208 12.416 222.208 71.595 0 59.904-120.832 72.491-222.208 72.491zM507.166 72.913c-70.784 0-286.249 0-286.249 136.32 0 135.765 215.465 135.765 286.249 135.765s286.208 0 286.208-136.491c0-135.595-207.915-135.595-286.208-135.595zM507.153 725.333c-72.192 0-130.901-58.752-130.901-130.944-0.128-34.987 13.269-67.712 37.803-92.416s57.216-38.4 92.032-38.528l1.067-32v32c72.192 0 130.944 58.709 130.944 130.944 0 72.192-58.752 130.944-130.944 130.944zM507.153 399.445h-1.152c-52.053 0.171-100.821 20.565-137.344 57.429-36.608 36.821-56.619 85.717-56.405 137.643 0 107.349 87.424 194.816 194.901 194.816 107.52 0 194.944-87.467 194.944-194.944s-87.424-194.944-194.944-194.944zM251.098 441.749c-1.451 0-2.944 0.085-4.437 0.299-75.733 10.624-132.907 76.331-133.077 152.834 0 76.16 54.485 140.331 129.493 152.661 17.963 2.816 33.877-9.003 36.779-26.368 2.859-17.451-8.96-33.92-26.368-36.779-43.989-7.211-75.904-44.843-75.904-89.429 0.085-44.8 33.579-83.33 77.909-89.517 17.536-2.432 29.696-18.598 27.264-36.139-2.261-16-15.957-27.563-31.659-27.563zM124.245 169.331c-3.797 0-7.637 0.683-11.392 2.091-61.056 23.296-70.187 65.664-70.187 88.832 0 37.973 21.717 86.571 125.141 102.059 17.621 2.219 33.749-9.387 36.395-26.88 2.603-17.536-9.472-33.792-26.923-36.437-46.848-6.997-70.613-20.053-70.613-38.741 0-5.845 0-17.963 28.971-29.013 16.512-6.272 24.832-24.789 18.517-41.301-4.864-12.757-17.024-20.608-29.909-20.608z" />
<glyph unicode="&#xe958;" glyph-name="outline-activity" d="M307.905 277.201c-6.827 0-13.696 2.176-19.499 6.613-13.995 10.795-16.64 30.891-5.845 44.885l127.701 165.973c5.205 6.784 12.928 11.179 21.375 12.245 8.619 1.109 17.067-1.28 23.765-6.613l120.32-94.507 105.259 135.808c10.837 14.037 30.891 16.64 44.885 5.717 13.995-10.837 16.555-30.933 5.717-44.885l-125.013-161.28c-5.205-6.741-12.885-11.136-21.333-12.16-8.533-1.152-16.981 1.323-23.723 6.571l-120.235 94.464-107.988-140.331c-6.315-8.192-15.787-12.501-25.387-12.501zM851.921 810.667c-27.563 0-50.005-22.4-50.005-50.005 0-27.563 22.443-50.048 50.005-50.048s50.005 22.485 50.005 50.048c0 27.605-22.443 50.005-50.005 50.005zM851.921 646.613c-62.848 0-114.005 51.157-114.005 114.048s51.157 114.005 114.005 114.005c62.891 0 114.005-51.115 114.005-114.005s-51.115-114.048-114.005-114.048zM692.608-8.653h-367.104c-143.659 0-240.171 100.907-240.171 251.093v344.832c0 150.4 96.512 251.477 240.171 251.477h310.101c17.664 0 32-14.336 32-32s-14.336-32-32-32h-310.101c-107.008 0-176.171-73.557-176.171-187.477v-344.832c0-115.413 67.499-187.093 176.171-187.093h367.104c107.008 0 176.171 73.429 176.171 187.093v300.331c0 17.664 14.336 32 32 32s32-14.336 32-32v-300.331c0-150.187-96.512-251.093-240.171-251.093z" />
<glyph unicode="&#xe959;" glyph-name="outline-add-user" d="M421.419 279.206c-180.523 0-272.085-31.019-272.085-92.117 0-61.696 91.563-93.013 272.085-93.013s272.085 31.019 272.085 92.075c0 61.781-91.563 93.056-272.085 93.056zM421.419 30.076c-83.115 0-336.085 0-336.085 157.013 0 139.947 191.787 156.117 336.085 156.117 83.115 0 336.085 0 336.085-157.056 0-139.904-191.787-156.075-336.085-156.075zM421.443 810.667c-89.771 0-162.859-73.088-162.859-162.901-0.171-43.477 16.555-84.224 47.061-114.987 30.549-30.72 71.253-47.744 114.603-47.915l1.195-32v32c89.814 0 162.902 73.088 162.902 162.901s-73.088 162.901-162.902 162.901zM421.443 420.864h-1.323c-60.544 0.213-117.291 23.979-159.829 66.816-42.581 42.88-65.92 99.797-65.707 160.213 0 124.971 101.76 226.773 226.859 226.773 125.142 0 226.902-101.803 226.902-226.901s-101.76-226.901-226.902-226.901zM819.332 386.991c-17.664 0-32 14.336-32 32v171.134c0 17.664 14.336 32 32 32s32-14.336 32-32v-171.134c0-17.664-14.336-32-32-32zM906.675 472.585h-174.507c-17.664 0-32 14.336-32 32s14.336 31.999 32 31.999h174.507c17.664 0 32-14.335 32-31.999s-14.336-32-32-32z" />
<glyph unicode="&#xe95a;" glyph-name="right" d="M354.133 778.283c-8.875-3.157-22.528-17.707-24.021-25.685-2.901-15.531-10.709-6.827 144-161.664l142.805-142.933-142.805-142.933c-154.88-155.051-146.901-146.091-143.957-161.835 1.579-8.448 16.512-23.637 25.643-26.112 15.573-4.224 5.973-12.843 178.688 159.915 140.629 140.587 158.336 158.891 159.36 164.565 2.901 16.213 12.459 5.547-157.653 175.915-86.059 86.187-158.379 157.696-160.725 158.933-7.168 3.755-14.165 4.352-21.333 1.835z" />
<glyph unicode="&#xe95b;" glyph-name="top" d="M500.864 628.011c-2.816-1.408-75.563-73.003-161.579-159.147-170.795-170.923-162.389-161.536-158.165-177.067 2.475-9.131 17.664-24.064 26.112-25.643 15.744-2.944 6.784-10.923 161.835 143.957l142.933 142.805 142.933-142.805c155.051-154.88 146.091-146.901 161.835-143.957 8.533 1.621 23.68 16.512 26.155 25.728 4.096 15.488 12.331 6.315-158.251 177.024-86.059 86.144-158.848 157.739-161.835 159.147-6.784 3.243-15.317 3.2-21.973-0.043z" />
<glyph unicode="&#xe95c;" glyph-name="outline-bag-1" d="M662.31 520.277c-17.664 0-32 14.336-32 32v129.365c0 71.125-57.813 129.024-128.939 129.024-34.603-1.195-67.029-13.141-91.518-37.376-24.491-24.277-38.059-56.576-38.187-91.008v-130.005c0-17.664-14.336-32-32-32s-32 14.336-32 32v129.365c0.213 52.437 20.48 100.821 57.131 137.088 36.608 36.309 85.758 54.443 136.702 55.936 106.283 0 192.811-86.613 192.811-193.024v-129.365c0-17.664-14.336-32-32-32zM299.008 619.75c-82.517 0-149.675-67.072-149.675-149.546v-235.349c0-82.432 67.157-149.504 149.675-149.504h404.651c82.517 0 149.675 67.072 149.675 149.504v235.349c0 82.474-67.157 149.546-149.675 149.546h-404.651zM703.659 21.35h-404.651c-117.803 0-213.675 95.787-213.675 213.504v235.349c0 117.76 95.872 213.546 213.675 213.546h404.651c117.845 0 213.675-95.787 213.675-213.546v-235.349c0-117.717-95.829-213.504-213.675-213.504z" />
<glyph unicode="&#xe95d;" glyph-name="outline-bag" d="M286.529 616.958c-18.816 0-81.707-7.595-99.755-105.044l-32.939-256c-10.709-71.808-2.432-123.776 24.661-155.221 26.752-31.061 74.624-46.165 146.304-46.165h356.18c44.715 0 105.771 8.917 142.635 51.499 29.269 33.749 39.339 84.011 29.952 149.419l-33.237 258.219c-14.165 63.614-51.541 103.294-99.499 103.294h-434.303zM680.981-9.472h-356.18c-91.435 0-155.136 22.4-194.773 68.437-39.808 46.165-53.12 115.413-39.552 205.781l33.109 257.109c21.76 117.886 101.333 159.102 162.944 159.102h434.303c61.867 0 137.088-41.088 162.475-156.329l33.664-260.565c12.075-84.096-3.029-151.552-44.971-199.936-41.728-48.128-107.776-73.6-191.019-73.6zM686.869 626.347c-17.664 0-32 14.336-32 32 0 84.011-68.352 152.32-152.32 152.32h-0.64c-40.149 0-79.277-16.171-107.65-44.373-28.501-28.373-44.843-67.755-44.843-107.947 0-17.664-14.336-32-32-32s-32 14.336-32 32c0 57.131 23.211 112.981 63.659 153.301 40.32 40.064 95.917 63.019 152.706 63.019h0.896c119.168 0 216.192-97.024 216.192-216.32 0-17.664-14.336-32-32-32zM629.047 434.167h-1.963c-17.664 0-32 14.336-32 32s14.336 32 32 32c17.664 0 32.981-14.336 32.981-32s-13.355-32-31.019-32zM380.253 434.167h-1.92c-17.664 0-32 14.336-32 32s14.336 32 32 32c17.664 0 32.981-14.336 32.981-32s-13.397-32-31.061-32z" />
<glyph unicode="&#xe95e;" glyph-name="minus" d="M158.164 491.516c-23.467-6.443-35.328-26.667-33.109-56.235 1.621-21.291 9.472-34.432 24.96-41.685l9.557-4.48h347.308c276.907 0 348.757 0.427 354.475 2.176 10.496 3.2 20.992 11.947 25.984 21.717 4.011 7.765 4.395 10.368 4.395 29.013 0 19.712-0.213 20.821-5.291 29.867-5.888 10.496-18.005 19.243-29.227 21.077-3.541 0.597-160.427 1.024-348.629 0.939-278.529-0.128-343.724-0.555-350.422-2.389z" />
<glyph unicode="&#xe95f;" glyph-name="outline-calendar" d="M881.741 537.417h-760.491c-17.664 0-32 14.336-32 32s14.336 32 32 32h760.491c17.664 0 32-14.336 32-32s-14.336-32-32-32zM691.255 370.79c-17.664 0-32.171 14.336-32.171 32s14.123 32 31.787 32h0.384c17.664 0 32-14.336 32-32s-14.336-32-32-32zM501.922 370.79c-17.664 0-32.171 14.336-32.171 32s14.123 32 31.787 32h0.384c17.664 0 32-14.336 32-32s-14.336-32-32-32zM312.213 370.79c-17.664 0-32.213 14.336-32.213 32s14.165 32 31.829 32h0.384c17.664 0 32-14.336 32-32s-14.336-32-32-32zM691.255 204.958c-17.664 0-32.171 14.336-32.171 32s14.123 32 31.787 32h0.384c17.664 0 32-14.336 32-32s-14.336-32-32-32zM501.922 204.958c-17.664 0-32.171 14.336-32.171 32s14.123 32 31.787 32h0.384c17.664 0 32-14.336 32-32s-14.336-32-32-32zM312.213 204.958c-17.664 0-32.213 14.336-32.213 32s14.165 32 31.829 32h0.384c17.664 0 32-14.336 32-32s-14.336-32-32-32zM673.835 712.917c-17.664 0-32 14.336-32 32v140.416c0 17.664 14.336 32 32 32s32-14.336 32-32v-140.416c0-17.664-14.336-32-32-32zM329.167 712.917c-17.664 0-32 14.336-32 32v140.416c0 17.664 14.336 32 32 32s32-14.336 32-32v-140.416c0-17.664-14.336-32-32-32zM320.896 785.958c-110.635 0-171.563-59.008-171.563-166.144v-386.091c0-109.483 60.928-169.728 171.563-169.728h360.875c110.635 0 171.563 59.136 171.563 166.485v389.333c0.171 52.693-13.995 93.653-42.112 121.813-28.928 29.013-73.515 44.331-129.067 44.331h-361.259zM681.771-0.004h-360.875c-145.28 0-235.563 89.557-235.563 233.728v386.091c0 141.995 90.283 230.144 235.563 230.144h361.259c72.917 0 133.205-21.845 174.379-63.104 39.979-40.149 61.013-97.877 60.8-167.125v-389.248c0-142.165-90.283-230.485-235.563-230.485z" />
</font>
</defs>
</svg>
